new svn version

classic Classic list List threaded Threaded
1 message Options
Reply | Threaded
Open this post in threaded view
|

new svn version

jackyr
Hi all

I am using FFMPEG since few months . the svn-r18709 was working fine
I have dowloaded le latest one svn-r23141 and got errors
Like so

using the same command line  
 
ffmpeg.exe -i %src_file% -b 320k    -r 12.5  -ss 720x576 -aspect 4:3 -ar 22050  -ac 1 -f flv -y c:/streaming/test_ffmpeg/test_ffmpeg.flv

results


FFmpeg version SVN-r23141, Copyright (c) 2000-2010 the FFmpeg developers
  built on May 15 2010 04:10:19 with gcc 4.4.2
  configuration: --target-os=mingw32 --enable-runtime-cpudetect --enable-avisynth --enable-gpl --enable-version3 --enable-bzlib --enable-libgsm --enable-libfaad --enable-pthreads --enable-libvorbis --enable-libtheora --enable-libspeex --enable-libmp3lame --enable-libopenjpeg --enable-libxvid --enable-libschroedinger --enable-libx264 --enable-libopencore_amrwb --enable-libopencore_amrnb --cross-prefix=i686-mingw32- --cc=ccache-i686-mingw32-gcc --arch=x86 --enable-memalign-hack
  libavutil     50.15. 2 / 50.15. 2
  libavcodec    52.67. 0 / 52.67. 0
  libavformat   52.62. 0 / 52.62. 0
  libavdevice   52. 2. 0 / 52. 2. 0
  libavfilter    1.20. 0 /  1.20. 0
  libswscale     0.10. 0 /  0.10. 0
[mpeg @ 019fe490]max_analyze_duration reached
Input #0, mpeg, from 'c:/streaming/sources_films/video_test.vob':
  Duration: 00:02:00.48, start: 0.500000, bitrate: 6704 kb/s
    Stream #0.0[0x1e0]: Video: mpeg2video, yuv420p, 720x576 [PAR 16:15 DAR 4:3], 104857 kb/s, 25 fps, 25 tbr, 90k tbn, 50 tbc
    Stream #0.1[0x1c0]: Audio: mp2, 48000 Hz, 2 channels, s16, 64 kb/s Output #0, flv, to 'c:/streaming/test_ffmpeg/test_ffmpeg.flv':
  Metadata:
    encoder         : Lavf52.62.0
    Stream #0.0: Video: flv, yuv420p, 720x576 [PAR 16:15 DAR 4:3], q=2-31, 320 kb/s, 1k tbn, 12.50 tbc
    Stream #0.1: Audio: libmp3lame, 22050 Hz, 1 channels, s16, 64 kb/s Stream mapping:
  Stream #0.0 -> #0.0
  Stream #0.1 -> #0.1
Press [q] to stop encoding
[buffer @ 01c47fb0]Buffering several frames is not supported. Please consume all available frames before adding a new one.
frame=    0 fps=  0 q=0.0 size=       0kB time=10000000000.00 bitrate=   0.0kbits/s    
frame=    0 fps=  0 q=0.0 size=       0kB time=10000000000.00 bitrate=   0.0kbits/s    
frame=    0 fps=  0 q=0.0 size=       0kB time=10000000000.00 bitrate=   0.0kbits/s    
frame=    0 fps=  0 q=0.0 size=       0kB time=10000000000.00 bitrate=   0.0kbits/s    
frame=    0 fps=  0 q=0.0 size=       0kB time=10000000000.00 bitrate=   0.0kbits/s    
frame=    0 fps=  0 q=0.0 size=       0kB time=10000000000.00 bitrate=   0.0kbits/s    
frame=    0 fps=  0 q=0.0 size=       0kB time=10000000000.00 bitrate=   0.0kbits/s    
frame=    0 fps=  0 q=0.0 size=       0kB time=10000000000.00 bitrate=   0.0kbits/s    
frame=    0 fps=  0 q=0.0 size=       0kB time=10000000000.00 bitrate=   0.0kbits/s    
frame=    0 fps=  0 q=0.0 size=       0kB time=10000000000.00 bitrate=   0.0kbits/s    
frame=    0 fps=  0 q=0.0 size=       0kB time=10000000000.00 bitrate=   0.0kbits/s    
frame=    0 fps=  0 q=0.0 size=       0kB time=10000000000.00 bitrate=   0.0kbits/s    
frame=    0 fps=  0 q=0.0 size=       0kB time=10000000000.00 bitrate=   0.0kbits/s    
frame=    0 fps=  0 q=0.0 size=       0kB time=10000000000.00 bitrate=   0.0kbits/s    
frame=    0 fps=  0 q=0.0 size=       0kB time=10000000000.00 bitrate=   0.0kbits/s    
frame=    0 fps=  0 q=0.0 size=       0kB time=10000000000.00 bitrate=   0.0kbits/s    
frame=    0 fps=  0 q=0.0 size=       0kB time=10000000000.00 bitrate=   0.0kbits/s    
frame=    0 fps=  0 q=0.0 size=       0kB time=10000000000.00 bitrate=   0.0kbits/s    
frame=    0 fps=  0 q=0.0 size=       0kB time=10000000000.00 bitrate=   0.0kbits/s    
frame=    0 fps=  0 q=0.0 size=       0kB time=10000000000.00 bitrate=   0.0kbits/s    
frame=    0 fps=  0 q=0.0 size=       0kB time=10000000000.00 bitrate=   0.0kbits/s    
frame=    0 fps=  0 q=0.0 size=       0kB time=10000000000.00 bitrate=   0.0kbits/s    
frame=    0 fps=  0 q=0.0 size=       0kB time=10000000000.00 bitrate=   0.0kbits/s    
frame=    0 fps=  0 q=0.0 Lsize=       1kB time=0.05 bitrate= 114.6kbits/s     video:0kB audio:0kB global headers:0kB muxing overhead 78.657074%

Do you have advices ?
Many thanks

jacky