incorrect frame rates

classic Classic list List threaded Threaded
1 message Options
Reply | Threaded
Open this post in threaded view
|

incorrect frame rates

Daniel Kluesing
Looking at some videos recorded on a nokia phone, ffmpeg reports a frame
rate of 30,000fps. I'm guessing it really means 30000/1001. Is there any
way to have ffmpeg return the correct frame rate?

-bash-3.00$ ffmpeg -i weirdfps.mp4
FFmpeg version SVN-r11258, Copyright (c) 2000-2007 Fabrice Bellard, et
al.
  configuration: --enable-memalign-hack --enable-gpl --enable-libmp3lame
--enable-liba52 --enable-libamr-nb --enable-libamr-wb --enable-libfaac
--enable-libfaad --enable-libx264 --enable-libxvid --disable-ffserver
--disable-ffplay
  libavutil version: 49.6.0
  libavcodec version: 51.49.0
  libavformat version: 52.2.0
  built on Dec 17 2007 12:51:15, gcc: 3.4.6 20060404 (Red Hat 3.4.6-3)
Compiler did not align stack variables. Libavcodec has been miscompiled
and may be very slow or crash. This is not a bug in libavcodec,
but in the compiler. You may try recompiling using gcc >= 4.2.
Do not report crashes to FFmpeg developers.
Input #0, mov,mp4,m4a,3gp,3g2,mj2, from 'weirdfps.mp4':
  Duration: 00:00:51.3, start: 0.000000, bitrate: 372 kb/s
    Stream #0.0(und): Video: mpeg4, yuv420p, 320x240 [PAR 1:1 DAR 4:3],
30000.00 tb(r)
    Stream #0.1(und): Audio: mpeg4aac, 32000 Hz, stereo
Must supply at least one output file
_______________________________________________
ffmpeg-user mailing list
[hidden email]
http://lists.mplayerhq.hu/mailman/listinfo/ffmpeg-user