ffplay black screen

classic Classic list List threaded Threaded
5 messages Options
Reply | Threaded
Open this post in threaded view
|

ffplay black screen

韦林
I am trying to use ffplay to play a video on my macOS.
What I see was a black screen, no matter what file I try.
When I drag the playing window to another screen (not the main screen), it’s ok.
When I drag it back, it turns black again.
I had try the master branch, but the problem is still.
Before I upgrade my macOS to 10.14.3, it’s ok.
After I upgrade and build ffplay, it turns black.
Appreciate any help!

Here’s the report:
ffplay started on 2019-03-07 at 10:15:49
Report written to "ffplay-20190307-101549.log"
Command line:
ffplay -report -i /Users/weilin/Downloads/bbb_1080p_h264.mp4
ffplay version N-93298-g0ce759defd Copyright (c) 2003-2019 the FFmpeg developers
  built with Apple LLVM version 10.0.0 (clang-1000.10.44.4)
  configuration: --prefix=/Users/weilin/third-libs/ffmpeg/darwin64-x86_64 --enable-gpl --enable-version3 --enable-pic --enable-libx264 --enable-libx265 --enable-libfreetype --disable-securetransport --enable-debug=lldb --disable-optimizations --disable-stripping --extra-cflags= --extra-ldflags=
  libavutil      56. 26.100 / 56. 26.100
  libavcodec     58. 47.103 / 58. 47.103
  libavformat    58. 26.101 / 58. 26.101
  libavdevice    58.  6.101 / 58.  6.101
  libavfilter     7. 48.100 /  7. 48.100
  libswscale      5.  4.100 /  5.  4.100
  libswresample   3.  4.100 /  3.  4.100
  libpostproc    55.  4.100 / 55.  4.100
Initialized opengl renderer.
[NULL @ 0x7f85f3800000] Opening '/Users/weilin/Downloads/bbb_1080p_h264.mp4' for reading
[file @ 0x7f85ef5d3fc0] Setting default whitelist 'file,crypto'
[mov,mp4,m4a,3gp,3g2,mj2 @ 0x7f85f3800000] Format mov,mp4,m4a,3gp,3g2,mj2 probed with size=2048 and score=100
[mov,mp4,m4a,3gp,3g2,mj2 @ 0x7f85f3800000] ISO: File Type Major Brand: isom
[mov,mp4,m4a,3gp,3g2,mj2 @ 0x7f85f3800000] Unknown dref type 0x206c7275 size 12
[mov,mp4,m4a,3gp,3g2,mj2 @ 0x7f85f3800000] Processing st: 0, edit list 0 - media time: 0, duration: 737280
[mov,mp4,m4a,3gp,3g2,mj2 @ 0x7f85f3800000] Before avformat_find_stream_info() pos: 29904009 bytes read:40216 seeks:1 nb_streams:1
[h264 @ 0x7f85f4000000] nal_unit_type: 7(SPS), nal_ref_idc: 1
[h264 @ 0x7f85f4000000] nal_unit_type: 8(PPS), nal_ref_idc: 1
[h264 @ 0x7f85f4000000] nal_unit_type: 6(SEI), nal_ref_idc: 0
[h264 @ 0x7f85f4000000] nal_unit_type: 5(IDR), nal_ref_idc: 1
[h264 @ 0x7f85f4000000] Format yuv420p chosen by get_format().
[h264 @ 0x7f85f4000000] Reinit context to 1920x1088, pix_fmt: yuv420p
[mov,mp4,m4a,3gp,3g2,mj2 @ 0x7f85f3800000] All info found
[mov,mp4,m4a,3gp,3g2,mj2 @ 0x7f85f3800000] After avformat_find_stream_info() pos: 527 bytes read:72984 seeks:2 frames:1
Input #0, mov,mp4,m4a,3gp,3g2,mj2, from '/Users/weilin/Downloads/bbb_1080p_h264.mp4':
  Metadata:
    major_brand     : isom
    minor_version   : 512
    compatible_brands: isomiso2avc1mp41
    encoder         : Lavf57.72.101
  Duration: 00:01:00.00, start: 0.000000, bitrate: 3987 kb/s
    Stream #0:0(und), 1, 1/12288: Video: h264 (High) (avc1 / 0x31637661), yuv420p, 1920x1080 [SAR 1:1 DAR 16:9], 3986 kb/s, 24 fps, 24 tbr, 12288 tbn, 24576 tbc (default)
    Metadata:
      handler_name    : VideoHandler
detected 8 logical cores
[h264 @ 0x7f85f0049a00] nal_unit_type: 7(SPS), nal_ref_idc: 1
[h264 @ 0x7f85f0049a00] nal_unit_type: 8(PPS), nal_ref_idc: 1
[h264 @ 0x7f85f0049a00] nal_unit_type: 6(SEI), nal_ref_idc: 0
[h264 @ 0x7f85f0049a00] nal_unit_type: 5(IDR), nal_ref_idc: 1
[h264 @ 0x7f85f0049a00] Format yuv420p chosen by get_format().
[h264 @ 0x7f85f0049a00] Reinit context to 1920x1088, pix_fmt: yuv420p
[h264 @ 0x7f85f005fc00] nal_unit_type: 1(Coded slice of a non-IDR picture), nal_ref_idc: 1
[h264 @ 0x7f85f0079c00] nal_unit_type: 1(Coded slice of a non-IDR picture), nal_ref_idc: 1
    nan M-V:    nan fd=   0 aq=    0KB vq=  498KB sq=    0B f=0/0  
[h264 @ 0x7f85f0853600] nal_unit_type: 1(Coded slice of a non-IDR picture), nal_ref_idc: 1
[h264 @ 0x7f85f0853c00] nal_unit_type: 1(Coded slice of a non-IDR picture), nal_ref_idc: 1
[h264 @ 0x7f85f101b800] nal_unit_type: 1(Coded slice of a non-IDR picture), nal_ref_idc: 1
[h264 @ 0x7f85f0090000] nal_unit_type: 1(Coded slice of a non-IDR picture), nal_ref_idc: 1
[h264 @ 0x7f85f009d200] nal_unit_type: 1(Coded slice of a non-IDR picture), nal_ref_idc: 1
Video frame changed from size:0x0 format:none serial:-1 to size:1920x1080 format:yuv420p serial:1
[h264 @ 0x7f85f2000000] nal_unit_type: 1(Coded slice of a non-IDR picture), nal_ref_idc: 1
[ffplay_buffer @ 0x7f85ef649280] Setting 'video_size' to value '1920x1080'
[ffplay_buffer @ 0x7f85ef649280] Setting 'pix_fmt' to value '0'
[ffplay_buffer @ 0x7f85ef649280] Setting 'time_base' to value '1/12288'
[ffplay_buffer @ 0x7f85ef649280] Setting 'pixel_aspect' to value '1/1'
[ffplay_buffer @ 0x7f85ef649280] Setting 'frame_rate' to value '24/1'
[ffplay_buffer @ 0x7f85ef649280] w:1920 h:1080 pixfmt:yuv420p tb:1/12288 fr:24/1 sar:1/1 sws_param:
[AVFilterGraph @ 0x7f85ef649700] query_formats: 2 queried, 1 merged, 0 already done, 0 delayed
[h264 @ 0x7f85f0049a00] nal_unit_type: 1(Coded slice of a non-IDR picture), nal_ref_idc: 1
[h264 @ 0x7f85f005fc00] nal_unit_type: 1(Coded slice of a non-IDR picture), nal_ref_idc: 1
[h264 @ 0x7f85f0079c00] nal_unit_type: 1(Coded slice of a non-IDR picture), nal_ref_idc: 1
Created 1920x1080 texture with SDL_PIXELFORMAT_IYUV.
   0.03 M-V:  0.000 fd=   0 aq=    0KB vq=  825KB sq=    0B f=0/0  
[h264 @ 0x7f85f0853600] nal_unit_type: 6(SEI), nal_ref_idc: 0
[h264 @ 0x7f85f0853600] nal_unit_type: 5(IDR), nal_ref_idc: 1
   0.07 M-V:  0.021 fd=   0 aq=    0KB vq=  838KB sq=    0B f=0/0  
[h264 @ 0x7f85f0853c00] nal_unit_type: 1(Coded slice of a non-IDR picture), nal_ref_idc: 1
   0.11 M-V:  0.000 fd=   0 aq=    0KB vq=  844KB sq=    0B f=0/0  
[h264 @ 0x7f85f101b800] nal_unit_type: 1(Coded slice of a non-IDR picture), nal_ref_idc: 1
   0.15 M-V:  0.000 fd=   0 aq=    0KB vq=  849KB sq=    0B f=0/0  
[h264 @ 0x7f85f0090000] nal_unit_type: 1(Coded slice of a non-IDR picture), nal_ref_idc: 1
   0.19 M-V:  0.000 fd=   0 aq=    0KB vq=  854KB sq=    0B f=0/0  
[h264 @ 0x7f85f009d200] nal_unit_type: 1(Coded slice of a non-IDR picture), nal_ref_idc: 1
   0.22 M-V:  0.001 fd=   0 aq=    0KB vq=  859KB sq=    0B f=0/0  
[h264 @ 0x7f85f2000000] nal_unit_type: 1(Coded slice of a non-IDR picture), nal_ref_idc: 1
   0.26 M-V:  0.000 fd=   0 aq=    0KB vq=  856KB sq=    0B f=0/0  
[h264 @ 0x7f85f0049a00] nal_unit_type: 1(Coded slice of a non-IDR picture), nal_ref_idc: 1
   0.29 M-V:  0.001 fd=   0 aq=    0KB vq=  831KB sq=    0B f=0/0  
   0.33 M-V:  0.001 fd=   0 aq=    0KB vq=  853KB sq=    0B f=0/0  
[h264 @ 0x7f85f005fc00] nal_unit_type: 1(Coded slice of a non-IDR picture), nal_ref_idc: 1
   0.36 M-V:  0.000 fd=   0 aq=    0KB vq=  849KB sq=    0B f=0/0  
[h264 @ 0x7f85f0079c00] nal_unit_type: 1(Coded slice of a non-IDR picture), nal_ref_idc: 1
   0.39 M-V:  0.001 fd=   0 aq=    0KB vq=  845KB sq=    0B f=0/0  
[h264 @ 0x7f85f0853600] nal_unit_type: 1(Coded slice of a non-IDR picture), nal_ref_idc: 1
   0.42 M-V:  0.001 fd=   0 aq=    0KB vq=  833KB sq=    0B f=0/0  
   0.45 M-V:  0.001 fd=   0 aq=    0KB vq=  833KB sq=    0B f=0/0  
[h264 @ 0x7f85f0853c00] nal_unit_type: 1(Coded slice of a non-IDR picture), nal_ref_idc: 1
   0.49 M-V:  0.001 fd=   0 aq=    0KB vq=  885KB sq=    0B f=0/0  
[h264 @ 0x7f85f101b800] nal_unit_type: 1(Coded slice of a non-IDR picture), nal_ref_idc: 1
   0.53 M-V:  0.001 fd=   0 aq=    0KB vq=  866KB sq=    0B f=0/0  
[h264 @ 0x7f85f0090000] nal_unit_type: 6(SEI), nal_ref_idc: 0
[h264 @ 0x7f85f0090000] nal_unit_type: 5(IDR), nal_ref_idc: 1
   0.57 M-V:  0.001 fd=   0 aq=    0KB vq=  841KB sq=    0B f=0/0  
[h264 @ 0x7f85f009d200] nal_unit_type: 1(Coded slice of a non-IDR picture), nal_ref_idc: 1
   0.60 M-V:  0.001 fd=   0 aq=    0KB vq=  818KB sq=    0B f=0/0  
[h264 @ 0x7f85f2000000] nal_unit_type: 1(Coded slice of a non-IDR picture), nal_ref_idc: 1
   0.64 M-V:  0.000 fd=   0 aq=    0KB vq=  793KB sq=    0B f=0/0  
[h264 @ 0x7f85f0049a00] nal_unit_type: 1(Coded slice of a non-IDR picture), nal_ref_idc: 1
   0.67 M-V:  0.000 fd=   0 aq=    0KB vq=  772KB sq=    0B f=0/0  
   0.70 M-V:  0.000 fd=   0 aq=    0KB vq=  772KB sq=    0B f=0/0  
[h264 @ 0x7f85f005fc00] nal_unit_type: 1(Coded slice of a non-IDR picture), nal_ref_idc: 1
   0.73 M-V:  0.001 fd=   0 aq=    0KB vq=  750KB sq=    0B f=0/0  
[h264 @ 0x7f85f0079c00] nal_unit_type: 1(Coded slice of a non-IDR picture), nal_ref_idc: 1
   0.77 M-V:  0.001 fd=   0 aq=    0KB vq=  730KB sq=    0B f=0/0  
[h264 @ 0x7f85f0853600] nal_unit_type: 1(Coded slice of a non-IDR picture), nal_ref_idc: 1
   0.80 M-V:  0.001 fd=   0 aq=    0KB vq=  698KB sq=    0B f=0/0  
   0.83 M-V:  0.001 fd=   0 aq=    0KB vq=  714KB sq=    0B f=0/0  
[h264 @ 0x7f85f0853c00] nal_unit_type: 1(Coded slice of a non-IDR picture), nal_ref_idc: 1
   0.87 M-V:  0.001 fd=   0 aq=    0KB vq=  696KB sq=    0B f=0/0  
[h264 @ 0x7f85f101b800] nal_unit_type: 1(Coded slice of a non-IDR picture), nal_ref_idc: 1
   0.90 M-V:  0.001 fd=   0 aq=    0KB vq=  682KB sq=    0B f=0/0  
[h264 @ 0x7f85f0090000] nal_unit_type: 1(Coded slice of a non-IDR picture), nal_ref_idc: 1
   0.93 M-V:  0.001 fd=   0 aq=    0KB vq=  665KB sq=    0B f=0/0  
[h264 @ 0x7f85f009d200] nal_unit_type: 1(Coded slice of a non-IDR picture), nal_ref_idc: 1
   0.97 M-V:  0.000 fd=   0 aq=    0KB vq=  728KB sq=    0B f=0/0  
[h264 @ 0x7f85f2000000] nal_unit_type: 1(Coded slice of a non-IDR picture), nal_ref_idc: 1
   1.01 M-V:  0.001 fd=   0 aq=    0KB vq=  709KB sq=    0B f=0/0  
   1.04 M-V:  0.001 fd=   0 aq=    0KB vq=  709KB sq=    0B f=0/0  
[h264 @ 0x7f85f0049a00] nal_unit_type: 6(SEI), nal_ref_idc: 0
[h264 @ 0x7f85f0049a00] nal_unit_type: 5(IDR), nal_ref_idc: 1
   1.08 M-V:  0.001 fd=   0 aq=    0KB vq=  628KB sq=    0B f=0/0  
[h264 @ 0x7f85f005fc00] nal_unit_type: 1(Coded slice of a non-IDR picture), nal_ref_idc: 1
   1.12 M-V:  0.001 fd=   0 aq=    0KB vq=  614KB sq=    0B f=0/0  
[h264 @ 0x7f85f0079c00] nal_unit_type: 1(Coded slice of a non-IDR picture), nal_ref_idc: 1
   1.15 M-V:  0.001 fd=   0 aq=    0KB vq=  605KB sq=    0B f=0/0  
[h264 @ 0x7f85f0853600] nal_unit_type: 1(Coded slice of a non-IDR picture), nal_ref_idc: 1
   1.19 M-V:  0.001 fd=   0 aq=    0KB vq=  599KB sq=    0B f=0/0  
[h264 @ 0x7f85f0853c00] nal_unit_type: 1(Coded slice of a non-IDR picture), nal_ref_idc: 1
   1.22 M-V:  0.001 fd=   0 aq=    0KB vq=  593KB sq=    0B f=0/0  
[h264 @ 0x7f85f101b800] nal_unit_type: 1(Coded slice of a non-IDR picture), nal_ref_idc: 1
   1.25 M-V:  0.001 fd=   0 aq=    0KB vq=  570KB sq=    0B f=0/0  
   1.29 M-V:  0.001 fd=   0 aq=    0KB vq=  585KB sq=    0B f=0/0  
[h264 @ 0x7f85f0090000] nal_unit_type: 1(Coded slice of a non-IDR picture), nal_ref_idc: 1
   1.33 M-V:  0.000 fd=   0 aq=    0KB vq=  577KB sq=    0B f=0/0  
[h264 @ 0x7f85f009d200] nal_unit_type: 1(Coded slice of a non-IDR picture), nal_ref_idc: 1
   1.36 M-V:  0.001 fd=   0 aq=    0KB vq=  573KB sq=    0B f=0/0  
[h264 @ 0x7f85f2000000] nal_unit_type: 1(Coded slice of a non-IDR picture), nal_ref_idc: 1
   1.39 M-V:  0.001 fd=   0 aq=    0KB vq=  566KB sq=    0B f=0/0  
[h264 @ 0x7f85f0049a00] nal_unit_type: 1(Coded slice of a non-IDR picture), nal_ref_idc: 1
   1.42 M-V:  0.001 fd=   0 aq=    0KB vq=  543KB sq=    0B f=0/0  
   1.45 M-V:  0.001 fd=   0 aq=    0KB vq=  558KB sq=    0B f=0/0  
[h264 @ 0x7f85f005fc00] nal_unit_type: 1(Coded slice of a non-IDR picture), nal_ref_idc: 1
   1.48 M-V:  0.001 fd=   0 aq=    0KB vq=  635KB sq=    0B f=0/0  
[h264 @ 0x7f85f0079c00] nal_unit_type: 1(Coded slice of a non-IDR picture), nal_ref_idc: 1
   1.52 M-V:  0.001 fd=   0 aq=    0KB vq=  620KB sq=    0B f=0/0  
[h264 @ 0x7f85f0853600] nal_unit_type: 6(SEI), nal_ref_idc: 0
[h264 @ 0x7f85f0853600] nal_unit_type: 5(IDR), nal_ref_idc: 1
   1.55 M-V:  0.001 fd=   0 aq=    0KB vq=  539KB sq=    0B f=0/0  
   1.58 M-V:  0.001 fd=   0 aq=    0KB vq=  551KB sq=    0B f=0/0  
[h264 @ 0x7f85f0853c00] nal_unit_type: 1(Coded slice of a non-IDR picture), nal_ref_idc: 1
   1.62 M-V:  0.001 fd=   0 aq=    0KB vq=  544KB sq=    0B f=0/0  
[h264 @ 0x7f85f101b800] nal_unit_type: 1(Coded slice of a non-IDR picture), nal_ref_idc: 1
   1.65 M-V:  0.001 fd=   0 aq=    0KB vq=  540KB sq=    0B f=0/0  
[h264 @ 0x7f85f0090000] nal_unit_type: 1(Coded slice of a non-IDR picture), nal_ref_idc: 1
   1.69 M-V:  0.000 fd=   0 aq=    0KB vq=  542KB sq=    0B f=0/0  
[h264 @ 0x7f85f009d200] nal_unit_type: 1(Coded slice of a non-IDR picture), nal_ref_idc: 1
   1.72 M-V:  0.000 fd=   0 aq=    0KB vq=  546KB sq=    0B f=0/0  
[h264 @ 0x7f85f2000000] nal_unit_type: 1(Coded slice of a non-IDR picture), nal_ref_idc: 1
   1.75 M-V:  0.001 fd=   0 aq=    0KB vq=  531KB sq=    0B f=0/0  
   1.79 M-V:  0.001 fd=   0 aq=    0KB vq=  547KB sq=    0B f=0/0  
[h264 @ 0x7f85f0049a00] nal_unit_type: 1(Coded slice of a non-IDR picture), nal_ref_idc: 1
   1.82 M-V:  0.001 fd=   0 aq=    0KB vq=  550KB sq=    0B f=0/0  
[h264 @ 0x7f85f005fc00] nal_unit_type: 1(Coded slice of a non-IDR picture), nal_ref_idc: 1
   1.86 M-V:  0.000 fd=   0 aq=    0KB vq=  554KB sq=    0B f=0/0  
[h264 @ 0x7f85f0079c00] nal_unit_type: 1(Coded slice of a non-IDR picture), nal_ref_idc: 1
   1.89 M-V:  0.001 fd=   0 aq=    0KB vq=  556KB sq=    0B f=0/0  
[h264 @ 0x7f85f0853600] nal_unit_type: 1(Coded slice of a non-IDR picture), nal_ref_idc: 1
   1.93 M-V:  0.001 fd=   0 aq=    0KB vq=  561KB sq=    0B f=0/0  
[h264 @ 0x7f85f0853c00] nal_unit_type: 1(Coded slice of a non-IDR picture), nal_ref_idc: 1
   1.96 M-V:  0.001 fd=   0 aq=    0KB vq=  539KB sq=    0B f=0/0  
   2.00 M-V:  0.001 fd=   0 aq=    0KB vq=  643KB sq=    0B f=0/0  
[h264 @ 0x7f85f101b800] nal_unit_type: 1(Coded slice of a non-IDR picture), nal_ref_idc: 1
   2.03 M-V:  0.001 fd=   0 aq=    0KB vq=  634KB sq=    0B f=0/0  
[h264 @ 0x7f85f0090000] nal_unit_type: 6(SEI), nal_ref_idc: 0
[h264 @ 0x7f85f0090000] nal_unit_type: 5(IDR), nal_ref_idc: 1
   2.07 M-V:  0.000 fd=   0 aq=    0KB vq=  556KB sq=    0B f=0/0  
[h264 @ 0x7f85f009d200] nal_unit_type: 1(Coded slice of a non-IDR picture), nal_ref_idc: 1
   2.10 M-V:  0.001 fd=   0 aq=    0KB vq=  563KB sq=    0B f=0/0  
[h264 @ 0x7f85f2000000] nal_unit_type: 1(Coded slice of a non-IDR picture), nal_ref_idc: 1
   2.13 M-V:  0.001 fd=   0 aq=    0KB vq=  550KB sq=    0B f=0/0  
   2.16 M-V:  0.001 fd=   0 aq=    0KB vq=  567KB sq=    0B f=0/0  
[h264 @ 0x7f85f0049a00] nal_unit_type: 1(Coded slice of a non-IDR picture), nal_ref_idc: 1
   2.20 M-V:  0.001 fd=   0 aq=    0KB vq=  571KB sq=    0B f=0/0  
[h264 @ 0x7f85f005fc00] nal_unit_type: 1(Coded slice of a non-IDR picture), nal_ref_idc: 1
   2.23 M-V:  0.001 fd=   0 aq=    0KB vq=  573KB sq=    0B f=0/0  
[h264 @ 0x7f85f0079c00] nal_unit_type: 1(Coded slice of a non-IDR picture), nal_ref_idc: 1
   2.28 M-V:  0.001 fd=   0 aq=    0KB vq=  576KB sq=    0B f=0/0  
[h264 @ 0x7f85f0853600] nal_unit_type: 1(Coded slice of a non-IDR picture), nal_ref_idc: 1
   2.34 M-V:  0.000 fd=   0 aq=    0KB vq=  577KB sq=    0B f=0/0  
[h264 @ 0x7f85f0853c00] nal_unit_type: 1(Coded slice of a non-IDR picture), nal_ref_idc: 1
   2.37 M-V:  0.018 fd=   0 aq=    0KB vq=  576KB sq=    0B f=0/0  
[h264 @ 0x7f85f101b800] nal_unit_type: 1(Coded slice of a non-IDR picture), nal_ref_idc: 1
   2.41 M-V:  0.001 fd=   0 aq=    0KB vq=  574KB sq=    0B f=0/0  
[h264 @ 0x7f85f0090000] nal_unit_type: 1(Coded slice of a non-IDR picture), nal_ref_idc: 1
   2.45 M-V:  0.001 fd=   0 aq=    0KB vq=  573KB sq=    0B f=0/0  
[h264 @ 0x7f85f009d200] nal_unit_type: 1(Coded slice of a non-IDR picture), nal_ref_idc: 1
   2.49 M-V:  0.001 fd=   0 aq=    0KB vq=  669KB sq=    0B f=0/0  
[h264 @ 0x7f85f2000000] nal_unit_type: 1(Coded slice of a non-IDR picture), nal_ref_idc: 1
   2.53 M-V:  0.001 fd=   0 aq=    0KB vq=  661KB sq=    0B f=0/0  
[h264 @ 0x7f85f0049a00] nal_unit_type: 6(SEI), nal_ref_idc: 0
[h264 @ 0x7f85f0049a00] nal_unit_type: 5(IDR), nal_ref_idc: 1
   2.56 M-V:  0.000 fd=   0 aq=    0KB vq=  574KB sq=    0B f=0/0  
[h264 @ 0x7f85f005fc00] nal_unit_type: 1(Coded slice of a non-IDR picture), nal_ref_idc: 1
   2.60 M-V:  0.001 fd=   0 aq=    0KB vq=  581KB sq=    0B f=0/0  
[h264 @ 0x7f85f0079c00] nal_unit_type: 1(Coded slice of a non-IDR picture), nal_ref_idc: 1
   2.63 M-V:  0.001 fd=   0 aq=    0KB vq=  569KB sq=    0B f=0/0  
   2.66 M-V:  0.001 fd=   0 aq=    0KB vq=  584KB sq=    0B f=0/0  
[h264 @ 0x7f85f0853600] nal_unit_type: 1(Coded slice of a non-IDR picture), nal_ref_idc: 1
   2.69 M-V:  0.000 fd=   0 aq=    0KB vq=  586KB sq=    0B f=0/0  
[h264 @ 0x7f85f0853c00] nal_unit_type: 1(Coded slice of a non-IDR picture), nal_ref_idc: 1
   2.73 M-V:  0.001 fd=   0 aq=    0KB vq=  584KB sq=    0B f=0/0  
[h264 @ 0x7f85f101b800] nal_unit_type: 1(Coded slice of a non-IDR picture), nal_ref_idc: 1
   2.77 M-V:  0.000 fd=   0 aq=    0KB vq=  584KB sq=    0B f=0/0  
[h264 @ 0x7f85f0090000] nal_unit_type: 1(Coded slice of a non-IDR picture), nal_ref_idc: 1
   2.81 M-V:  0.001 fd=   0 aq=    0KB vq=  583KB sq=    0B f=0/0  
[h264 @ 0x7f85f009d200] nal_unit_type: 1(Coded slice of a non-IDR picture), nal_ref_idc: 1
   2.84 M-V:  0.001 fd=   0 aq=    0KB vq=  567KB sq=    0B f=0/0  
   2.87 M-V:  0.001 fd=   0 aq=    0KB vq=  583KB sq=    0B f=0/0  
[h264 @ 0x7f85f2000000] nal_unit_type: 1(Coded slice of a non-IDR picture), nal_ref_idc: 1
   2.90 M-V:  0.001 fd=   0 aq=    0KB vq=  582KB sq=    0B f=0/0  
[h264 @ 0x7f85f0049a00] nal_unit_type: 1(Coded slice of a non-IDR picture), nal_ref_idc: 1
   2.93 M-V:  0.000 fd=   0 aq=    0KB vq=  580KB sq=    0B f=0/0  
[h264 @ 0x7f85f005fc00] nal_unit_type: 1(Coded slice of a non-IDR picture), nal_ref_idc: 1
   2.97 M-V:  0.001 fd=   0 aq=    0KB vq=  678KB sq=    0B f=0/0  
[h264 @ 0x7f85f0079c00] nal_unit_type: 1(Coded slice of a non-IDR picture), nal_ref_idc: 1
   3.00 M-V:  0.001 fd=   0 aq=    0KB vq=  666KB sq=    0B f=0/0  
   3.04 M-V:  0.001 fd=   0 aq=    0KB vq=  666KB sq=    0B f=0/0  
[h264 @ 0x7f85f0853600] nal_unit_type: 6(SEI), nal_ref_idc: 0
[h264 @ 0x7f85f0853600] nal_unit_type: 5(IDR), nal_ref_idc: 1
   3.07 M-V:  0.001 fd=   0 aq=    0KB vq=  573KB sq=    0B f=0/0  
[h264 @ 0x7f85f0853c00] nal_unit_type: 1(Coded slice of a non-IDR picture), nal_ref_idc: 1
   3.10 M-V:  0.000 fd=   0 aq=    0KB vq=  577KB sq=    0B f=0/0  
[h264 @ 0x7f85f101b800] nal_unit_type: 1(Coded slice of a non-IDR picture), nal_ref_idc: 1
   3.14 M-V:  0.000 fd=   0 aq=    0KB vq=  579KB sq=    0B f=0/0  
[h264 @ 0x7f85f0090000] nal_unit_type: 1(Coded slice of a non-IDR picture), nal_ref_idc: 1
   3.17 M-V:  0.001 fd=   0 aq=    0KB vq=  577KB sq=    0B f=0/0  
   3.20 M-V:  0.001 fd=   0 aq=    0KB vq=  577KB sq=    0B f=0/0  
[h264 @ 0x7f85f009d200] nal_unit_type: 1(Coded slice of a non-IDR picture), nal_ref_idc: 1
   3.24 M-V:  0.001 fd=   0 aq=    0KB vq=  574KB sq=    0B f=0/0  
[h264 @ 0x7f85f2000000] nal_unit_type: 1(Coded slice of a non-IDR picture), nal_ref_idc: 1
   3.28 M-V:  0.001 fd=   0 aq=    0KB vq=  572KB sq=    0B f=0/0  
[h264 @ 0x7f85f0049a00] nal_unit_type: 1(Coded slice of a non-IDR picture), nal_ref_idc: 1
   3.32 M-V:  0.001 fd=   0 aq=    0KB vq=  571KB sq=    0B f=0/0  
[h264 @ 0x7f85f005fc00] nal_unit_type: 1(Coded slice of a non-IDR picture), nal_ref_idc: 1
   3.35 M-V:  0.000 fd=   0 aq=    0KB vq=  568KB sq=    0B f=0/0  
[h264 @ 0x7f85f0079c00] nal_unit_type: 1(Coded slice of a non-IDR picture), nal_ref_idc: 1
   3.39 M-V:  0.001 fd=   0 aq=    0KB vq=  565KB sq=    0B f=0/0  
[h264 @ 0x7f85f0853600] nal_unit_type: 1(Coded slice of a non-IDR picture), nal_ref_idc: 1
   3.42 M-V:  0.000 fd=   0 aq=    0KB vq=  566KB sq=    0B f=0/0  
   3.45 M-V:  0.000 fd=   0 aq=    0KB vq=  566KB sq=    0B f=0/0  
[h264 @ 0x7f85f0853c00] nal_unit_type: 1(Coded slice of a non-IDR picture), nal_ref_idc: 1
   3.48 M-V:  0.001 fd=   0 aq=    0KB vq=  682KB sq=    0B f=0/0  
[h264 @ 0x7f85f101b800] nal_unit_type: 1(Coded slice of a non-IDR picture), nal_ref_idc: 1
   3.55 M-V:  0.001 fd=   0 aq=    0KB vq=  673KB sq=    0B f=0/0  
[h264 @ 0x7f85f0090000] nal_unit_type: 6(SEI), nal_ref_idc: 0
[h264 @ 0x7f85f0090000] nal_unit_type: 5(IDR), nal_ref_idc: 1
[h264 @ 0x7f85f009d200] nal_unit_type: 1(Coded slice of a non-IDR picture), nal_ref_idc: 1
   3.59 M-V:  0.001 fd=   0 aq=    0KB vq=  574KB sq=    0B f=0/0  
   3.62 M-V:  0.001 fd=   0 aq=    0KB vq=  574KB sq=    0B f=0/0  
[h264 @ 0x7f85f2000000] nal_unit_type: 1(Coded slice of a non-IDR picture), nal_ref_idc: 1
   3.65 M-V:  0.000 fd=   0 aq=    0KB vq=  574KB sq=    0B f=0/0  
[h264 @ 0x7f85f0049a00] nal_unit_type: 1(Coded slice of a non-IDR picture), nal_ref_idc: 1
   3.68 M-V:  0.001 fd=   0 aq=    0KB vq=  574KB sq=    0B f=0/0  
[h264 @ 0x7f85f005fc00] nal_unit_type: 1(Coded slice of a non-IDR picture), nal_ref_idc: 1
   3.71 M-V:  0.000 fd=   0 aq=    0KB vq=  558KB sq=    0B f=0/0  
   3.74 M-V:  0.000 fd=   0 aq=    0KB vq=  573KB sq=    0B f=0/0  
[h264 @ 0x7f85f0079c00] nal_unit_type: 1(Coded slice of a non-IDR picture), nal_ref_idc: 1
   3.78 M-V:  0.001 fd=   0 aq=    0KB vq=  573KB sq=    0B f=0/0  
[h264 @ 0x7f85f0853600] nal_unit_type: 1(Coded slice of a non-IDR picture), nal_ref_idc: 1
   3.82 M-V:  0.001 fd=   0 aq=    0KB vq=  573KB sq=    0B f=0/0  
[h264 @ 0x7f85f0853c00] nal_unit_type: 1(Coded slice of a non-IDR picture), nal_ref_idc: 1
   3.85 M-V:  0.000 fd=   0 aq=    0KB vq=  572KB sq=    0B f=0/0  
[h264 @ 0x7f85f101b800] nal_unit_type: 1(Coded slice of a non-IDR picture), nal_ref_idc: 1
   3.89 M-V:  0.000 fd=   0 aq=    0KB vq=  571KB sq=    0B f=0/0  
[h264 @ 0x7f85f0090000] nal_unit_type: 1(Coded slice of a non-IDR picture), nal_ref_idc: 1
   3.92 M-V:  0.001 fd=   0 aq=    0KB vq=  554KB sq=    0B f=0/0  
   3.95 M-V:  0.001 fd=   0 aq=    0KB vq=  571KB sq=    0B f=0/0  
[h264 @ 0x7f85f009d200] nal_unit_type: 1(Coded slice of a non-IDR picture), nal_ref_idc: 1
   3.98 M-V:  0.001 fd=   0 aq=    0KB vq=  691KB sq=    0B f=0/0  
[h264 @ 0x7f85f2000000] nal_unit_type: 1(Coded slice of a non-IDR picture), nal_ref_idc: 1
   4.03 M-V:  0.000 fd=   0 aq=    0KB vq=  681KB sq=    0B f=0/0  
[h264 @ 0x7f85f0049a00] nal_unit_type: 6(SEI), nal_ref_idc: 0
[h264 @ 0x7f85f0049a00] nal_unit_type: 5(IDR), nal_ref_idc: 1
   4.07 M-V:  0.001 fd=   0 aq=    0KB vq=  573KB sq=    0B f=0/0  
[h264 @ 0x7f85f005fc00] nal_unit_type: 1(Coded slice of a non-IDR picture), nal_ref_idc: 1
   4.10 M-V:  0.000 fd=   0 aq=    0KB vq=  579KB sq=    0B f=0/0  
[h264 @ 0x7f85f0079c00] nal_unit_type: 1(Coded slice of a non-IDR picture), nal_ref_idc: 1
   4.14 M-V:  0.001 fd=   0 aq=    0KB vq=  580KB sq=    0B f=0/0  
[h264 @ 0x7f85f0853600] nal_unit_type: 1(Coded slice of a non-IDR picture), nal_ref_idc: 1
   4.17 M-V:  0.000 fd=   0 aq=    0KB vq=  568KB sq=    0B f=0/0  
   4.20 M-V:  0.000 fd=   0 aq=    0KB vq=  581KB sq=    0B f=0/0  
[h264 @ 0x7f85f0853c00] nal_unit_type: 1(Coded slice of a non-IDR picture), nal_ref_idc: 1
   4.23 M-V:  0.001 fd=   0 aq=    0KB vq=  580KB sq=    0B f=0/0  
[h264 @ 0x7f85f101b800] nal_unit_type: 1(Coded slice of a non-IDR picture), nal_ref_idc: 1
   4.27 M-V:  0.001 fd=   0 aq=    0KB vq=  579KB sq=    0B f=0/0  
[h264 @ 0x7f85f0090000] nal_unit_type: 1(Coded slice of a non-IDR picture), nal_ref_idc: 1
   4.30 M-V:  0.000 fd=   0 aq=    0KB vq=  578KB sq=    0B f=0/0  
[h264 @ 0x7f85f009d200] nal_unit_type: 1(Coded slice of a non-IDR picture), nal_ref_idc: 1
   4.34 M-V:  0.001 fd=   0 aq=    0KB vq=  564KB sq=    0B f=0/0  
   4.37 M-V:  0.001 fd=   0 aq=    0KB vq=  578KB sq=    0B f=0/0  
[h264 @ 0x7f85f2000000] nal_unit_type: 1(Coded slice of a non-IDR picture), nal_ref_idc: 1
   4.40 M-V:  0.001 fd=   0 aq=    0KB vq=  577KB sq=    0B f=0/0  
[h264 @ 0x7f85f0049a00] nal_unit_type: 1(Coded slice of a non-IDR picture), nal_ref_idc: 1
   4.43 M-V:  0.001 fd=   0 aq=    0KB vq=  576KB sq=    0B f=0/0  
[h264 @ 0x7f85f005fc00] nal_unit_type: 1(Coded slice of a non-IDR picture), nal_ref_idc: 1
   4.47 M-V:  0.000 fd=   0 aq=    0KB vq=  691KB sq=    0B f=0/0  
[h264 @ 0x7f85f0079c00] nal_unit_type: 1(Coded slice of a non-IDR picture), nal_ref_idc: 1
   4.50 M-V:  0.001 fd=   0 aq=    0KB vq=  681KB sq=    0B f=0/0  
   4.54 M-V:  0.001 fd=   0 aq=    0KB vq=  681KB sq=    0B f=0/0  
[h264 @ 0x7f85f0853600] nal_unit_type: 6(SEI), nal_ref_idc: 0
[h264 @ 0x7f85f0853600] nal_unit_type: 5(IDR), nal_ref_idc: 1
   4.57 M-V:  0.001 fd=   0 aq=    0KB vq=  559KB sq=    0B f=0/0  
[h264 @ 0x7f85f0853c00] nal_unit_type: 1(Coded slice of a non-IDR picture), nal_ref_idc: 1
   4.61 M-V:  0.000 fd=   0 aq=    0KB vq=  563KB sq=    0B f=0/0  
[h264 @ 0x7f85f101b800] nal_unit_type: 1(Coded slice of a non-IDR picture), nal_ref_idc: 1
   4.64 M-V:  0.000 fd=   0 aq=    0KB vq=  564KB sq=    0B f=0/0  
[h264 @ 0x7f85f0090000] nal_unit_type: 1(Coded slice of a non-IDR picture), nal_ref_idc: 1
   4.67 M-V:  0.001 fd=   0 aq=    0KB vq=  554KB sq=    0B f=0/0  
   4.70 M-V:  0.001 fd=   0 aq=    0KB vq=  564KB sq=    0B f=0/0  
[h264 @ 0x7f85f009d200] nal_unit_type: 1(Coded slice of a non-IDR picture), nal_ref_idc: 1
   4.73 M-V:  0.001 fd=   0 aq=    0KB vq=  564KB sq=    0B f=0/0  
[h264 @ 0x7f85f2000000] nal_unit_type: 1(Coded slice of a non-IDR picture), nal_ref_idc: 1
   4.76 M-V:  0.001 fd=   0 aq=    0KB vq=  560KB sq=    0B f=0/0  
[h264 @ 0x7f85f0049a00] nal_unit_type: 1(Coded slice of a non-IDR picture), nal_ref_idc: 1
   4.80 M-V:  0.001 fd=   0 aq=    0KB vq=  545KB sq=    0B f=0/0  
   4.83 M-V:  0.001 fd=   0 aq=    0KB vq=  556KB sq=    0B f=0/0  
[h264 @ 0x7f85f005fc00] nal_unit_type: 1(Coded slice of a non-IDR picture), nal_ref_idc: 1
   4.86 M-V:  0.000 fd=   0 aq=    0KB vq=  553KB sq=    0B f=0/0  
[h264 @ 0x7f85f0079c00] nal_unit_type: 1(Coded slice of a non-IDR picture), nal_ref_idc: 1
   4.90 M-V:  0.001 fd=   0 aq=    0KB vq=  549KB sq=    0B f=0/0  
[h264 @ 0x7f85f0853600] nal_unit_type: 1(Coded slice of a non-IDR picture), nal_ref_idc: 1
   4.93 M-V:  0.001 fd=   0 aq=    0KB vq=  546KB sq=    0B f=0/0  
[h264 @ 0x7f85f0853c00] nal_unit_type: 1(Coded slice of a non-IDR picture), nal_ref_idc: 1
   4.97 M-V:  0.001 fd=   0 aq=    0KB vq=  668KB sq=    0B f=0/0  
[h264 @ 0x7f85f101b800] nal_unit_type: 1(Coded slice of a non-IDR picture), nal_ref_idc: 1
   5.00 M-V:  0.001 fd=   0 aq=    0KB vq=  651KB sq=    0B f=0/0  
   5.04 M-V:  0.001 fd=   0 aq=    0KB vq=  656KB sq=    0B f=0/0  
[h264 @ 0x7f85f0090000] nal_unit_type: 6(SEI), nal_ref_idc: 0
[h264 @ 0x7f85f0090000] nal_unit_type: 5(IDR), nal_ref_idc: 1
   5.08 M-V:  0.001 fd=   0 aq=    0KB vq=  527KB sq=    0B f=0/0  
[h264 @ 0x7f85f009d200] nal_unit_type: 1(Coded slice of a non-IDR picture), nal_ref_idc: 1
   5.11 M-V:  0.000 fd=   0 aq=    0KB vq=  530KB sq=    0B f=0/0  
[h264 @ 0x7f85f2000000] nal_unit_type: 1(Coded slice of a non-IDR picture), nal_ref_idc: 1
   5.15 M-V:  0.000 fd=   0 aq=    0KB vq=  533KB sq=    0B f=0/0  
[h264 @ 0x7f85f0049a00] nal_unit_type: 1(Coded slice of a non-IDR picture), nal_ref_idc: 1
   5.18 M-V:  0.001 fd=   0 aq=    0KB vq=  531KB sq=    0B f=0/0  
[h264 @ 0x7f85f005fc00] nal_unit_type: 1(Coded slice of a non-IDR picture), nal_ref_idc: 1
   5.21 M-V:  0.001 fd=   0 aq=    0KB vq=  519KB sq=    0B f=0/0  
   5.25 M-V:  0.001 fd=   0 aq=    0KB vq=  531KB sq=    0B f=0/0  
[h264 @ 0x7f85f0079c00] nal_unit_type: 1(Coded slice of a non-IDR picture), nal_ref_idc: 1
   5.29 M-V:  0.000 fd=   0 aq=    0KB vq=  528KB sq=    0B f=0/0  
[h264 @ 0x7f85f0853600] nal_unit_type: 1(Coded slice of a non-IDR picture), nal_ref_idc: 1
   5.32 M-V:  0.001 fd=   0 aq=    0KB vq=  528KB sq=    0B f=0/0  
[h264 @ 0x7f85f0853c00] nal_unit_type: 1(Coded slice of a non-IDR picture), nal_ref_idc: 1
   5.35 M-V:  0.000 fd=   0 aq=    0KB vq=  526KB sq=    0B f=0/0  
[h264 @ 0x7f85f101b800] nal_unit_type: 1(Coded slice of a non-IDR picture), nal_ref_idc: 1
   5.38 M-V:  0.001 fd=   0 aq=    0KB vq=  512KB sq=    0B f=0/0  
   5.41 M-V:  0.001 fd=   0 aq=    0KB vq=  524KB sq=    0B f=0/0  
[h264 @ 0x7f85f0090000] nal_unit_type: 1(Coded slice of a non-IDR picture), nal_ref_idc: 1
   5.45 M-V:  0.001 fd=   0 aq=    0KB vq=  520KB sq=    0B f=0/0  
[h264 @ 0x7f85f009d200] nal_unit_type: 1(Coded slice of a non-IDR picture), nal_ref_idc: 1
   5.48 M-V:  0.001 fd=   0 aq=    0KB vq=  650KB sq=    0B f=0/0  
[h264 @ 0x7f85f2000000] nal_unit_type: 1(Coded slice of a non-IDR picture), nal_ref_idc: 1
   5.52 M-V:  0.000 fd=   0 aq=    0KB vq=  641KB sq=    0B f=0/0  
[h264 @ 0x7f85f0049a00] nal_unit_type: 6(SEI), nal_ref_idc: 0
[h264 @ 0x7f85f0049a00] nal_unit_type: 5(IDR), nal_ref_idc: 1
   5.55 M-V:  0.000 fd=   0 aq=    0KB vq=  516KB sq=    0B f=0/0  
[h264 @ 0x7f85f005fc00] nal_unit_type: 1(Coded slice of a non-IDR picture), nal_ref_idc: 1
   5.59 M-V:  0.000 fd=   0 aq=    0KB vq=  511KB sq=    0B f=0/0  
   5.62 M-V:  0.000 fd=   0 aq=    0KB vq=  520KB sq=    0B f=0/0  
[h264 @ 0x7f85f0079c00] nal_unit_type: 1(Coded slice of a non-IDR picture), nal_ref_idc: 1
   5.66 M-V:  0.000 fd=   0 aq=    0KB vq=  520KB sq=    0B f=0/0  
[h264 @ 0x7f85f0853600] nal_unit_type: 1(Coded slice of a non-IDR picture), nal_ref_idc: 1
   5.69 M-V:  0.001 fd=   0 aq=    0KB vq=  521KB sq=    0B f=0/0  
[h264 @ 0x7f85f0853c00] nal_unit_type: 1(Coded slice of a non-IDR picture), nal_ref_idc: 1
   5.73 M-V:  0.001 fd=   0 aq=    0KB vq=  522KB sq=    0B f=0/0  
[h264 @ 0x7f85f101b800] nal_unit_type: 1(Coded slice of a non-IDR picture), nal_ref_idc: 1
   5.77 M-V:  0.000 fd=   0 aq=    0KB vq=  521KB sq=    0B f=0/0  
[h264 @ 0x7f85f0090000] nal_unit_type: 1(Coded slice of a non-IDR picture), nal_ref_idc: 1
   5.81 M-V:  0.001 fd=   0 aq=    0KB vq=  522KB sq=    0B f=0/0  
[h264 @ 0x7f85f009d200] nal_unit_type: 1(Coded slice of a non-IDR picture), nal_ref_idc: 1
   5.84 M-V:  0.000 fd=   0 aq=    0KB vq=  511KB sq=    0B f=0/0  
   5.87 M-V:  0.000 fd=   0 aq=    0KB vq=  521KB sq=    0B f=0/0  
[h264 @ 0x7f85f2000000] nal_unit_type: 1(Coded slice of a non-IDR picture), nal_ref_idc: 1
   5.90 M-V:  0.001 fd=   0 aq=    0KB vq=  522KB sq=    0B f=0/0  
[h264 @ 0x7f85f0049a00] nal_unit_type: 1(Coded slice of a non-IDR picture), nal_ref_idc: 1
   5.93 M-V:  0.000 fd=   0 aq=    0KB vq=  523KB sq=    0B f=0/0  
[h264 @ 0x7f85f005fc00] nal_unit_type: 1(Coded slice of a non-IDR picture), nal_ref_idc: 1
   5.97 M-V:  0.001 fd=   0 aq=    0KB vq=  654KB sq=    0B f=0/0  
[h264 @ 0x7f85f0079c00] nal_unit_type: 1(Coded slice of a non-IDR picture), nal_ref_idc: 1
   6.00 M-V:  0.001 fd=   0 aq=    0KB vq=  647KB sq=    0B f=0/0  
   6.04 M-V:  0.001 fd=   0 aq=    0KB vq=  647KB sq=    0B f=0/0  
[h264 @ 0x7f85f0853600] nal_unit_type: 6(SEI), nal_ref_idc: 0
[h264 @ 0x7f85f0853600] nal_unit_type: 5(IDR), nal_ref_idc: 1
   6.07 M-V:  0.001 fd=   0 aq=    0KB vq=  515KB sq=    0B f=0/0  
[h264 @ 0x7f85f0853c00] nal_unit_type: 1(Coded slice of a non-IDR picture), nal_ref_idc: 1
   6.11 M-V:  0.001 fd=   0 aq=    0KB vq=  523KB sq=    0B f=0/0  
[h264 @ 0x7f85f101b800] nal_unit_type: 1(Coded slice of a non-IDR picture), nal_ref_idc: 1
   6.15 M-V:  0.000 fd=   0 aq=    0KB vq=  527KB sq=    0B f=0/0  
[h264 @ 0x7f85f0090000] nal_unit_type: 1(Coded slice of a non-IDR picture), nal_ref_idc: 1
   6.18 M-V:  0.001 fd=   0 aq=    0KB vq=  529KB sq=    0B f=0/0  
[h264 @ 0x7f85f009d200] nal_unit_type: 1(Coded slice of a non-IDR picture), nal_ref_idc: 1
   6.22 M-V:  0.001 fd=   0 aq=    0KB vq=  531KB sq=    0B f=0/0  
[h264 @ 0x7f85f2000000] nal_unit_type: 1(Coded slice of a non-IDR picture), nal_ref_idc: 1
   6.26 M-V:  0.000 fd=   0 aq=    0KB vq=  534KB sq=    0B f=0/0  
[h264 @ 0x7f85f0049a00] nal_unit_type: 1(Coded slice of a non-IDR picture), nal_ref_idc: 1
   6.30 M-V:  0.001 fd=   0 aq=    0KB vq=  523KB sq=    0B f=0/0  
   6.33 M-V:  0.001 fd=   0 aq=    0KB vq=  538KB sq=    0B f=0/0  
[h264 @ 0x7f85f005fc00] nal_unit_type: 1(Coded slice of a non-IDR picture), nal_ref_idc: 1
   6.36 M-V:  0.000 fd=   0 aq=    0KB vq=  542KB sq=    0B f=0/0  
[h264 @ 0x7f85f0079c00] nal_unit_type: 1(Coded slice of a non-IDR picture), nal_ref_idc: 1
   6.40 M-V:  0.001 fd=   0 aq=    0KB vq=  544KB sq=    0B f=0/0  
[h264 @ 0x7f85f0853600] nal_unit_type: 1(Coded slice of a non-IDR picture), nal_ref_idc: 1
   6.43 M-V:  0.001 fd=   0 aq=    0KB vq=  548KB sq=    0B f=0/0  
[h264 @ 0x7f85f0853c00] nal_unit_type: 1(Coded slice of a non-IDR picture), nal_ref_idc: 1
   6.46 M-V:  0.001 fd=   0 aq=    0KB vq=  536KB sq=    0B f=0/0  
   6.49 M-V:  0.001 fd=   0 aq=    0KB vq=  703KB sq=    0B f=0/0  
[h264 @ 0x7f85f101b800] nal_unit_type: 1(Coded slice of a non-IDR picture), nal_ref_idc: 1
   6.53 M-V:  0.001 fd=   0 aq=    0KB vq=  697KB sq=    0B f=0/0  
[h264 @ 0x7f85f0090000] nal_unit_type: 6(SEI), nal_ref_idc: 0
[h264 @ 0x7f85f0090000] nal_unit_type: 5(IDR), nal_ref_idc: 1
   6.56 M-V:  0.000 fd=   0 aq=    0KB vq=  559KB sq=    0B f=0/0  
[h264 @ 0x7f85f009d200] nal_unit_type: 1(Coded slice of a non-IDR picture), nal_ref_idc: 1
   6.60 M-V:  0.000 fd=   0 aq=    0KB vq=  563KB sq=    0B f=0/0  
[h264 @ 0x7f85f2000000] nal_unit_type: 1(Coded slice of a non-IDR picture), nal_ref_idc: 1
   6.63 M-V:  0.001 fd=   0 aq=    0KB vq=  558KB sq=    0B f=0/0  
   6.66 M-V:  0.001 fd=   0 aq=    0KB vq=  568KB sq=    0B f=0/0  
[h264 @ 0x7f85f0049a00] nal_unit_type: 1(Coded slice of a non-IDR picture), nal_ref_idc: 1
   6.69 M-V:  0.001 fd=   0 aq=    0KB vq=  568KB sq=    0B f=0/0  
[h264 @ 0x7f85f005fc00] nal_unit_type: 1(Coded slice of a non-IDR picture), nal_ref_idc: 1
   6.73 M-V:  0.000 fd=   0 aq=    0KB vq=  570KB sq=    0B f=0/0  
[h264 @ 0x7f85f0079c00] nal_unit_type: 1(Coded slice of a non-IDR picture), nal_ref_idc: 1
   6.77 M-V:  0.001 fd=   0 aq=    0KB vq=  572KB sq=    0B f=0/0  
[h264 @ 0x7f85f0853600] nal_unit_type: 1(Coded slice of a non-IDR picture), nal_ref_idc: 1
   6.81 M-V:  0.001 fd=   0 aq=    0KB vq=  572KB sq=    0B f=0/0  
[h264 @ 0x7f85f0853c00] nal_unit_type: 1(Coded slice of a non-IDR picture), nal_ref_idc: 1
   6.84 M-V:  0.000 fd=   0 aq=    0KB vq=  562KB sq=    0B f=0/0  
   6.87 M-V:  0.000 fd=   0 aq=    0KB vq=  574KB sq=    0B f=0/0  
[h264 @ 0x7f85f101b800] nal_unit_type: 1(Coded slice of a non-IDR picture), nal_ref_idc: 1
   6.90 M-V:  0.001 fd=   0 aq=    0KB vq=  574KB sq=    0B f=0/0  
[h264 @ 0x7f85f0090000] nal_unit_type: 1(Coded slice of a non-IDR picture), nal_ref_idc: 1
   6.93 M-V:  0.001 fd=   0 aq=    0KB vq=  577KB sq=    0B f=0/0  
[h264 @ 0x7f85f009d200] nal_unit_type: 1(Coded slice of a non-IDR picture), nal_ref_idc: 1
   6.97 M-V:  0.001 fd=   0 aq=    0KB vq=  724KB sq=    0B f=0/0  
[h264 @ 0x7f85f2000000] nal_unit_type: 1(Coded slice of a non-IDR picture), nal_ref_idc: 1
   7.00 M-V:  0.001 fd=   0 aq=    0KB vq=  717KB sq=    0B f=0/0  
   7.04 M-V:  0.001 fd=   0 aq=    0KB vq=  717KB sq=    0B f=0/0  
[h264 @ 0x7f85f0049a00] nal_unit_type: 6(SEI), nal_ref_idc: 0
[h264 @ 0x7f85f0049a00] nal_unit_type: 5(IDR), nal_ref_idc: 1
   7.08 M-V:  0.001 fd=   0 aq=    0KB vq=  582KB sq=    0B f=0/0  
[h264 @ 0x7f85f005fc00] nal_unit_type: 1(Coded slice of a non-IDR picture), nal_ref_idc: 1
   7.11 M-V:  0.001 fd=   0 aq=    0KB vq=  586KB sq=    0B f=0/0  
[h264 @ 0x7f85f0079c00] nal_unit_type: 1(Coded slice of a non-IDR picture), nal_ref_idc: 1
   7.14 M-V:  0.001 fd=   0 aq=    0KB vq=  590KB sq=    0B f=0/0  
[h264 @ 0x7f85f0853600] nal_unit_type: 1(Coded slice of a non-IDR picture), nal_ref_idc: 1
   7.17 M-V:  0.001 fd=   0 aq=    0KB vq=  578KB sq=    0B f=0/0  
   7.20 M-V:  0.001 fd=   0 aq=    0KB vq=  589KB sq=    0B f=0/0  
[h264 @ 0x7f85f0853c00] nal_unit_type: 1(Coded slice of a non-IDR picture), nal_ref_idc: 1
   7.23 M-V:  0.001 fd=   0 aq=    0KB vq=  589KB sq=    0B f=0/0  
[h264 @ 0x7f85f101b800] nal_unit_type: 1(Coded slice of a non-IDR picture), nal_ref_idc: 1
   7.27 M-V:  0.000 fd=   0 aq=    0KB vq=  589KB sq=    0B f=0/0  
[h264 @ 0x7f85f0090000] nal_unit_type: 1(Coded slice of a non-IDR picture), nal_ref_idc: 1
   7.30 M-V:  0.001 fd=   0 aq=    0KB vq=  588KB sq=    0B f=0/0  
[h264 @ 0x7f85f009d200] nal_unit_type: 1(Coded slice of a non-IDR picture), nal_ref_idc: 1
   7.34 M-V:  0.001 fd=   0 aq=    0KB vq=  574KB sq=    0B f=0/0  
   7.37 M-V:  0.001 fd=   0 aq=    0KB vq=  587KB sq=    0B f=0/0  
[h264 @ 0x7f85f2000000] nal_unit_type: 1(Coded slice of a non-IDR picture), nal_ref_idc: 1
   7.40 M-V:  0.001 fd=   0 aq=    0KB vq=  584KB sq=    0B f=0/0  
[h264 @ 0x7f85f0049a00] nal_unit_type: 1(Coded slice of a non-IDR picture), nal_ref_idc: 1
   7.43 M-V:  0.000 fd=   0 aq=    0KB vq=  582KB sq=    0B f=0/0  
[h264 @ 0x7f85f005fc00] nal_unit_type: 1(Coded slice of a non-IDR picture), nal_ref_idc: 1
   7.47 M-V:  0.000 fd=   0 aq=    0KB vq=  749KB sq=    0B f=0/0  
[h264 @ 0x7f85f0079c00] nal_unit_type: 1(Coded slice of a non-IDR picture), nal_ref_idc: 1
   7.50 M-V:  0.000 fd=   0 aq=    0KB vq=  734KB sq=    0B f=0/0  
   7.53 M-V:  0.000 fd=   0 aq=    0KB vq=  739KB sq=    0B f=0/0

Here’s another thing, when I build ffplay, there’s a lot of warnings(truncated):
ld: warning: text-based stub file /System/Library/Frameworks//Foundation.framework/Foundation.tbd and library file /System/Library/Frameworks//Foundation.framework/Foundation are out of sync. Falling back to library file for linking.
ld: warning: ld: warning: text-based stub file /System/Library/Frameworks//Foundation.framework/Foundation.tbd and library file /System/Library/Frameworks//Foundation.framework/Foundation are out of sync. Falling back to library file for linking.text-based stub file /System/Library/Frameworks//Foundation.framework/Foundation.tbd and library file /System/Library/Frameworks//Foundation.framework/Foundation are out of sync. Falling back to library file for linking.

ld: warning: ld: warning: ld: warning: text-based stub file /System/Library/Frameworks//AVFoundation.framework/AVFoundation.tbd and library file /System/Library/Frameworks//AVFoundation.framework/AVFoundation are out of sync. Falling back to library file for linking.text-based stub file /System/Library/Frameworks//AVFoundation.framework/AVFoundation.tbd and library file /System/Library/Frameworks//AVFoundation.framework/AVFoundation are out of sync. Falling back to library file for linking.text-based stub file /System/Library/Frameworks//AVFoundation.framework/AVFoundation.tbd and library file /System/Library/Frameworks//AVFoundation.framework/AVFoundation are out of sync. Falling back to library file for linking.


ld: warning: ld: warning: ld: warning: text-based stub file /System/Library/Frameworks//CoreVideo.framework/CoreVideo.tbd and library file /System/Library/Frameworks//CoreVideo.framework/CoreVideo are out of sync. Falling back to library file for linking.text-based stub file /System/Library/Frameworks//CoreVideo.framework/CoreVideo.tbd and library file /System/Library/Frameworks//CoreVideo.framework/CoreVideo are out of sync. Falling back to library file for linking.
text-based stub file /System/Library/Frameworks//CoreVideo.framework/CoreVideo.tbd and library file /System/Library/Frameworks//CoreVideo.framework/CoreVideo are out of sync. Falling back to library file for linking.
_______________________________________________
ffmpeg-user mailing list
[hidden email]
https://ffmpeg.org/mailman/listinfo/ffmpeg-user

To unsubscribe, visit link above, or email
[hidden email] with subject "unsubscribe".
Reply | Threaded
Open this post in threaded view
|

Re: ffplay black screen

桃源老師-2
Hi,


> 2019/03/07 午前11:53、韦林 <[hidden email]>のメール:
>
> Before I upgrade my macOS to 10.14.3, it’s ok.
> After I upgrade and build ffplay, it turns black.

Sounds like same issue I have encountered.

On macOS Mojave 10.14.x, SDL2 have issue of black screen.

https://discourse.libsdl.org/t/macos-10-14-mojave-issues/25060

You can fix it by using Development version of SDL2

hg clone http://hg.libsdl.org/SDL



Best Regards,


// Miya aka. TougenRoushi


_______________________________________________
ffmpeg-user mailing list
[hidden email]
https://ffmpeg.org/mailman/listinfo/ffmpeg-user

To unsubscribe, visit link above, or email
[hidden email] with subject "unsubscribe".

smime.p7s (3K) Download Attachment
Reply | Threaded
Open this post in threaded view
|

Re: ffplay black screen

桃源老師-2
Hi,

> 2019/03/08 午前0:25、桃源老師 <[hidden email]>のメール:
>
> You can fix it by using Development version of SDL2

My information was a bit old.  Black screen on macOS 10.14 was fixed in SDL2 2.0.9.


https://discourse.libsdl.org/t/sdl-2-0-9-released/25228



Best Regards,


// Miya aka. TougenRoushi


_______________________________________________
ffmpeg-user mailing list
[hidden email]
https://ffmpeg.org/mailman/listinfo/ffmpeg-user

To unsubscribe, visit link above, or email
[hidden email] with subject "unsubscribe".

smime.p7s (3K) Download Attachment
Reply | Threaded
Open this post in threaded view
|

Re: ffplay black screen

DopeLabs
In reply to this post by 韦林
i can confirm i also have this same issue since upgrading to mojave.

i have a 5k imac, and additional displays.. a 4k and a 1080p.

things work fine when moving the window between the external displays but goes black when i try to move the window to the 5k built in display.

even using ffplays build in showspectrum when playing an audio file shows the same behavior..



> On Mar 6, 2019, at 6:53 39PM, 韦林 <[hidden email]> wrote:
>
> I am trying to use ffplay to play a video on my macOS.
> What I see was a black screen, no matter what file I try.
> When I drag the playing window to another screen (not the main screen), it’s ok.
> When I drag it back, it turns black again.
> I had try the master branch, but the problem is still.
> Before I upgrade my macOS to 10.14.3, it’s ok.
> After I upgrade and build ffplay, it turns black.
> Appreciate any help!
>
> Here’s the report:
> ffplay started on 2019-03-07 at 10:15:49
> Report written to "ffplay-20190307-101549.log"
> Command line:
> ffplay -report -i /Users/weilin/Downloads/bbb_1080p_h264.mp4
> ffplay version N-93298-g0ce759defd Copyright (c) 2003-2019 the FFmpeg developers
>  built with Apple LLVM version 10.0.0 (clang-1000.10.44.4)
>  configuration: --prefix=/Users/weilin/third-libs/ffmpeg/darwin64-x86_64 --enable-gpl --enable-version3 --enable-pic --enable-libx264 --enable-libx265 --enable-libfreetype --disable-securetransport --enable-debug=lldb --disable-optimizations --disable-stripping --extra-cflags= --extra-ldflags=
>  libavutil      56. 26.100 / 56. 26.100
>  libavcodec     58. 47.103 / 58. 47.103
>  libavformat    58. 26.101 / 58. 26.101
>  libavdevice    58.  6.101 / 58.  6.101
>  libavfilter     7. 48.100 /  7. 48.100
>  libswscale      5.  4.100 /  5.  4.100
>  libswresample   3.  4.100 /  3.  4.100
>  libpostproc    55.  4.100 / 55.  4.100
> Initialized opengl renderer.
> [NULL @ 0x7f85f3800000] Opening '/Users/weilin/Downloads/bbb_1080p_h264.mp4' for reading
> [file @ 0x7f85ef5d3fc0] Setting default whitelist 'file,crypto'
> [mov,mp4,m4a,3gp,3g2,mj2 @ 0x7f85f3800000] Format mov,mp4,m4a,3gp,3g2,mj2 probed with size=2048 and score=100
> [mov,mp4,m4a,3gp,3g2,mj2 @ 0x7f85f3800000] ISO: File Type Major Brand: isom
> [mov,mp4,m4a,3gp,3g2,mj2 @ 0x7f85f3800000] Unknown dref type 0x206c7275 size 12
> [mov,mp4,m4a,3gp,3g2,mj2 @ 0x7f85f3800000] Processing st: 0, edit list 0 - media time: 0, duration: 737280
> [mov,mp4,m4a,3gp,3g2,mj2 @ 0x7f85f3800000] Before avformat_find_stream_info() pos: 29904009 bytes read:40216 seeks:1 nb_streams:1
> [h264 @ 0x7f85f4000000] nal_unit_type: 7(SPS), nal_ref_idc: 1
> [h264 @ 0x7f85f4000000] nal_unit_type: 8(PPS), nal_ref_idc: 1
> [h264 @ 0x7f85f4000000] nal_unit_type: 6(SEI), nal_ref_idc: 0
> [h264 @ 0x7f85f4000000] nal_unit_type: 5(IDR), nal_ref_idc: 1
> [h264 @ 0x7f85f4000000] Format yuv420p chosen by get_format().
> [h264 @ 0x7f85f4000000] Reinit context to 1920x1088, pix_fmt: yuv420p
> [mov,mp4,m4a,3gp,3g2,mj2 @ 0x7f85f3800000] All info found
> [mov,mp4,m4a,3gp,3g2,mj2 @ 0x7f85f3800000] After avformat_find_stream_info() pos: 527 bytes read:72984 seeks:2 frames:1
> Input #0, mov,mp4,m4a,3gp,3g2,mj2, from '/Users/weilin/Downloads/bbb_1080p_h264.mp4':
>  Metadata:
>    major_brand     : isom
>    minor_version   : 512
>    compatible_brands: isomiso2avc1mp41
>    encoder         : Lavf57.72.101
>  Duration: 00:01:00.00, start: 0.000000, bitrate: 3987 kb/s
>    Stream #0:0(und), 1, 1/12288: Video: h264 (High) (avc1 / 0x31637661), yuv420p, 1920x1080 [SAR 1:1 DAR 16:9], 3986 kb/s, 24 fps, 24 tbr, 12288 tbn, 24576 tbc (default)
>    Metadata:
>      handler_name    : VideoHandler
> detected 8 logical cores
> [h264 @ 0x7f85f0049a00] nal_unit_type: 7(SPS), nal_ref_idc: 1
> [h264 @ 0x7f85f0049a00] nal_unit_type: 8(PPS), nal_ref_idc: 1
> [h264 @ 0x7f85f0049a00] nal_unit_type: 6(SEI), nal_ref_idc: 0
> [h264 @ 0x7f85f0049a00] nal_unit_type: 5(IDR), nal_ref_idc: 1
> [h264 @ 0x7f85f0049a00] Format yuv420p chosen by get_format().
> [h264 @ 0x7f85f0049a00] Reinit context to 1920x1088, pix_fmt: yuv420p
> [h264 @ 0x7f85f005fc00] nal_unit_type: 1(Coded slice of a non-IDR picture), nal_ref_idc: 1
> [h264 @ 0x7f85f0079c00] nal_unit_type: 1(Coded slice of a non-IDR picture), nal_ref_idc: 1
>    nan M-V:    nan fd=   0 aq=    0KB vq=  498KB sq=    0B f=0/0  
> [h264 @ 0x7f85f0853600] nal_unit_type: 1(Coded slice of a non-IDR picture), nal_ref_idc: 1
> [h264 @ 0x7f85f0853c00] nal_unit_type: 1(Coded slice of a non-IDR picture), nal_ref_idc: 1
> [h264 @ 0x7f85f101b800] nal_unit_type: 1(Coded slice of a non-IDR picture), nal_ref_idc: 1
> [h264 @ 0x7f85f0090000] nal_unit_type: 1(Coded slice of a non-IDR picture), nal_ref_idc: 1
> [h264 @ 0x7f85f009d200] nal_unit_type: 1(Coded slice of a non-IDR picture), nal_ref_idc: 1
> Video frame changed from size:0x0 format:none serial:-1 to size:1920x1080 format:yuv420p serial:1
> [h264 @ 0x7f85f2000000] nal_unit_type: 1(Coded slice of a non-IDR picture), nal_ref_idc: 1
> [ffplay_buffer @ 0x7f85ef649280] Setting 'video_size' to value '1920x1080'
> [ffplay_buffer @ 0x7f85ef649280] Setting 'pix_fmt' to value '0'
> [ffplay_buffer @ 0x7f85ef649280] Setting 'time_base' to value '1/12288'
> [ffplay_buffer @ 0x7f85ef649280] Setting 'pixel_aspect' to value '1/1'
> [ffplay_buffer @ 0x7f85ef649280] Setting 'frame_rate' to value '24/1'
> [ffplay_buffer @ 0x7f85ef649280] w:1920 h:1080 pixfmt:yuv420p tb:1/12288 fr:24/1 sar:1/1 sws_param:
> [AVFilterGraph @ 0x7f85ef649700] query_formats: 2 queried, 1 merged, 0 already done, 0 delayed
> [h264 @ 0x7f85f0049a00] nal_unit_type: 1(Coded slice of a non-IDR picture), nal_ref_idc: 1
> [h264 @ 0x7f85f005fc00] nal_unit_type: 1(Coded slice of a non-IDR picture), nal_ref_idc: 1
> [h264 @ 0x7f85f0079c00] nal_unit_type: 1(Coded slice of a non-IDR picture), nal_ref_idc: 1
> Created 1920x1080 texture with SDL_PIXELFORMAT_IYUV.
>   0.03 M-V:  0.000 fd=   0 aq=    0KB vq=  825KB sq=    0B f=0/0  
> [h264 @ 0x7f85f0853600] nal_unit_type: 6(SEI), nal_ref_idc: 0
> [h264 @ 0x7f85f0853600] nal_unit_type: 5(IDR), nal_ref_idc: 1
>   0.07 M-V:  0.021 fd=   0 aq=    0KB vq=  838KB sq=    0B f=0/0  
> [h264 @ 0x7f85f0853c00] nal_unit_type: 1(Coded slice of a non-IDR picture), nal_ref_idc: 1
>   0.11 M-V:  0.000 fd=   0 aq=    0KB vq=  844KB sq=    0B f=0/0  
> [h264 @ 0x7f85f101b800] nal_unit_type: 1(Coded slice of a non-IDR picture), nal_ref_idc: 1
>   0.15 M-V:  0.000 fd=   0 aq=    0KB vq=  849KB sq=    0B f=0/0  
> [h264 @ 0x7f85f0090000] nal_unit_type: 1(Coded slice of a non-IDR picture), nal_ref_idc: 1
>   0.19 M-V:  0.000 fd=   0 aq=    0KB vq=  854KB sq=    0B f=0/0  
> [h264 @ 0x7f85f009d200] nal_unit_type: 1(Coded slice of a non-IDR picture), nal_ref_idc: 1
>   0.22 M-V:  0.001 fd=   0 aq=    0KB vq=  859KB sq=    0B f=0/0  
> [h264 @ 0x7f85f2000000] nal_unit_type: 1(Coded slice of a non-IDR picture), nal_ref_idc: 1
>   0.26 M-V:  0.000 fd=   0 aq=    0KB vq=  856KB sq=    0B f=0/0  
> [h264 @ 0x7f85f0049a00] nal_unit_type: 1(Coded slice of a non-IDR picture), nal_ref_idc: 1
>   0.29 M-V:  0.001 fd=   0 aq=    0KB vq=  831KB sq=    0B f=0/0  
>   0.33 M-V:  0.001 fd=   0 aq=    0KB vq=  853KB sq=    0B f=0/0  
> [h264 @ 0x7f85f005fc00] nal_unit_type: 1(Coded slice of a non-IDR picture), nal_ref_idc: 1
>   0.36 M-V:  0.000 fd=   0 aq=    0KB vq=  849KB sq=    0B f=0/0  
> [h264 @ 0x7f85f0079c00] nal_unit_type: 1(Coded slice of a non-IDR picture), nal_ref_idc: 1
>   0.39 M-V:  0.001 fd=   0 aq=    0KB vq=  845KB sq=    0B f=0/0  
> [h264 @ 0x7f85f0853600] nal_unit_type: 1(Coded slice of a non-IDR picture), nal_ref_idc: 1
>   0.42 M-V:  0.001 fd=   0 aq=    0KB vq=  833KB sq=    0B f=0/0  
>   0.45 M-V:  0.001 fd=   0 aq=    0KB vq=  833KB sq=    0B f=0/0  
> [h264 @ 0x7f85f0853c00] nal_unit_type: 1(Coded slice of a non-IDR picture), nal_ref_idc: 1
>   0.49 M-V:  0.001 fd=   0 aq=    0KB vq=  885KB sq=    0B f=0/0  
> [h264 @ 0x7f85f101b800] nal_unit_type: 1(Coded slice of a non-IDR picture), nal_ref_idc: 1
>   0.53 M-V:  0.001 fd=   0 aq=    0KB vq=  866KB sq=    0B f=0/0  
> [h264 @ 0x7f85f0090000] nal_unit_type: 6(SEI), nal_ref_idc: 0
> [h264 @ 0x7f85f0090000] nal_unit_type: 5(IDR), nal_ref_idc: 1
>   0.57 M-V:  0.001 fd=   0 aq=    0KB vq=  841KB sq=    0B f=0/0  
> [h264 @ 0x7f85f009d200] nal_unit_type: 1(Coded slice of a non-IDR picture), nal_ref_idc: 1
>   0.60 M-V:  0.001 fd=   0 aq=    0KB vq=  818KB sq=    0B f=0/0  
> [h264 @ 0x7f85f2000000] nal_unit_type: 1(Coded slice of a non-IDR picture), nal_ref_idc: 1
>   0.64 M-V:  0.000 fd=   0 aq=    0KB vq=  793KB sq=    0B f=0/0  
> [h264 @ 0x7f85f0049a00] nal_unit_type: 1(Coded slice of a non-IDR picture), nal_ref_idc: 1
>   0.67 M-V:  0.000 fd=   0 aq=    0KB vq=  772KB sq=    0B f=0/0  
>   0.70 M-V:  0.000 fd=   0 aq=    0KB vq=  772KB sq=    0B f=0/0  
> [h264 @ 0x7f85f005fc00] nal_unit_type: 1(Coded slice of a non-IDR picture), nal_ref_idc: 1
>   0.73 M-V:  0.001 fd=   0 aq=    0KB vq=  750KB sq=    0B f=0/0  
> [h264 @ 0x7f85f0079c00] nal_unit_type: 1(Coded slice of a non-IDR picture), nal_ref_idc: 1
>   0.77 M-V:  0.001 fd=   0 aq=    0KB vq=  730KB sq=    0B f=0/0  
> [h264 @ 0x7f85f0853600] nal_unit_type: 1(Coded slice of a non-IDR picture), nal_ref_idc: 1
>   0.80 M-V:  0.001 fd=   0 aq=    0KB vq=  698KB sq=    0B f=0/0  
>   0.83 M-V:  0.001 fd=   0 aq=    0KB vq=  714KB sq=    0B f=0/0  
> [h264 @ 0x7f85f0853c00] nal_unit_type: 1(Coded slice of a non-IDR picture), nal_ref_idc: 1
>   0.87 M-V:  0.001 fd=   0 aq=    0KB vq=  696KB sq=    0B f=0/0  
> [h264 @ 0x7f85f101b800] nal_unit_type: 1(Coded slice of a non-IDR picture), nal_ref_idc: 1
>   0.90 M-V:  0.001 fd=   0 aq=    0KB vq=  682KB sq=    0B f=0/0  
> [h264 @ 0x7f85f0090000] nal_unit_type: 1(Coded slice of a non-IDR picture), nal_ref_idc: 1
>   0.93 M-V:  0.001 fd=   0 aq=    0KB vq=  665KB sq=    0B f=0/0  
> [h264 @ 0x7f85f009d200] nal_unit_type: 1(Coded slice of a non-IDR picture), nal_ref_idc: 1
>   0.97 M-V:  0.000 fd=   0 aq=    0KB vq=  728KB sq=    0B f=0/0  
> [h264 @ 0x7f85f2000000] nal_unit_type: 1(Coded slice of a non-IDR picture), nal_ref_idc: 1
>   1.01 M-V:  0.001 fd=   0 aq=    0KB vq=  709KB sq=    0B f=0/0  
>   1.04 M-V:  0.001 fd=   0 aq=    0KB vq=  709KB sq=    0B f=0/0  
> [h264 @ 0x7f85f0049a00] nal_unit_type: 6(SEI), nal_ref_idc: 0
> [h264 @ 0x7f85f0049a00] nal_unit_type: 5(IDR), nal_ref_idc: 1
>   1.08 M-V:  0.001 fd=   0 aq=    0KB vq=  628KB sq=    0B f=0/0  
> [h264 @ 0x7f85f005fc00] nal_unit_type: 1(Coded slice of a non-IDR picture), nal_ref_idc: 1
>   1.12 M-V:  0.001 fd=   0 aq=    0KB vq=  614KB sq=    0B f=0/0  
> [h264 @ 0x7f85f0079c00] nal_unit_type: 1(Coded slice of a non-IDR picture), nal_ref_idc: 1
>   1.15 M-V:  0.001 fd=   0 aq=    0KB vq=  605KB sq=    0B f=0/0  
> [h264 @ 0x7f85f0853600] nal_unit_type: 1(Coded slice of a non-IDR picture), nal_ref_idc: 1
>   1.19 M-V:  0.001 fd=   0 aq=    0KB vq=  599KB sq=    0B f=0/0  
> [h264 @ 0x7f85f0853c00] nal_unit_type: 1(Coded slice of a non-IDR picture), nal_ref_idc: 1
>   1.22 M-V:  0.001 fd=   0 aq=    0KB vq=  593KB sq=    0B f=0/0  
> [h264 @ 0x7f85f101b800] nal_unit_type: 1(Coded slice of a non-IDR picture), nal_ref_idc: 1
>   1.25 M-V:  0.001 fd=   0 aq=    0KB vq=  570KB sq=    0B f=0/0  
>   1.29 M-V:  0.001 fd=   0 aq=    0KB vq=  585KB sq=    0B f=0/0  
> [h264 @ 0x7f85f0090000] nal_unit_type: 1(Coded slice of a non-IDR picture), nal_ref_idc: 1
>   1.33 M-V:  0.000 fd=   0 aq=    0KB vq=  577KB sq=    0B f=0/0  
> [h264 @ 0x7f85f009d200] nal_unit_type: 1(Coded slice of a non-IDR picture), nal_ref_idc: 1
>   1.36 M-V:  0.001 fd=   0 aq=    0KB vq=  573KB sq=    0B f=0/0  
> [h264 @ 0x7f85f2000000] nal_unit_type: 1(Coded slice of a non-IDR picture), nal_ref_idc: 1
>   1.39 M-V:  0.001 fd=   0 aq=    0KB vq=  566KB sq=    0B f=0/0  
> [h264 @ 0x7f85f0049a00] nal_unit_type: 1(Coded slice of a non-IDR picture), nal_ref_idc: 1
>   1.42 M-V:  0.001 fd=   0 aq=    0KB vq=  543KB sq=    0B f=0/0  
>   1.45 M-V:  0.001 fd=   0 aq=    0KB vq=  558KB sq=    0B f=0/0  
> [h264 @ 0x7f85f005fc00] nal_unit_type: 1(Coded slice of a non-IDR picture), nal_ref_idc: 1
>   1.48 M-V:  0.001 fd=   0 aq=    0KB vq=  635KB sq=    0B f=0/0  
> [h264 @ 0x7f85f0079c00] nal_unit_type: 1(Coded slice of a non-IDR picture), nal_ref_idc: 1
>   1.52 M-V:  0.001 fd=   0 aq=    0KB vq=  620KB sq=    0B f=0/0  
> [h264 @ 0x7f85f0853600] nal_unit_type: 6(SEI), nal_ref_idc: 0
> [h264 @ 0x7f85f0853600] nal_unit_type: 5(IDR), nal_ref_idc: 1
>   1.55 M-V:  0.001 fd=   0 aq=    0KB vq=  539KB sq=    0B f=0/0  
>   1.58 M-V:  0.001 fd=   0 aq=    0KB vq=  551KB sq=    0B f=0/0  
> [h264 @ 0x7f85f0853c00] nal_unit_type: 1(Coded slice of a non-IDR picture), nal_ref_idc: 1
>   1.62 M-V:  0.001 fd=   0 aq=    0KB vq=  544KB sq=    0B f=0/0  
> [h264 @ 0x7f85f101b800] nal_unit_type: 1(Coded slice of a non-IDR picture), nal_ref_idc: 1
>   1.65 M-V:  0.001 fd=   0 aq=    0KB vq=  540KB sq=    0B f=0/0  
> [h264 @ 0x7f85f0090000] nal_unit_type: 1(Coded slice of a non-IDR picture), nal_ref_idc: 1
>   1.69 M-V:  0.000 fd=   0 aq=    0KB vq=  542KB sq=    0B f=0/0  
> [h264 @ 0x7f85f009d200] nal_unit_type: 1(Coded slice of a non-IDR picture), nal_ref_idc: 1
>   1.72 M-V:  0.000 fd=   0 aq=    0KB vq=  546KB sq=    0B f=0/0  
> [h264 @ 0x7f85f2000000] nal_unit_type: 1(Coded slice of a non-IDR picture), nal_ref_idc: 1
>   1.75 M-V:  0.001 fd=   0 aq=    0KB vq=  531KB sq=    0B f=0/0  
>   1.79 M-V:  0.001 fd=   0 aq=    0KB vq=  547KB sq=    0B f=0/0  
> [h264 @ 0x7f85f0049a00] nal_unit_type: 1(Coded slice of a non-IDR picture), nal_ref_idc: 1
>   1.82 M-V:  0.001 fd=   0 aq=    0KB vq=  550KB sq=    0B f=0/0  
> [h264 @ 0x7f85f005fc00] nal_unit_type: 1(Coded slice of a non-IDR picture), nal_ref_idc: 1
>   1.86 M-V:  0.000 fd=   0 aq=    0KB vq=  554KB sq=    0B f=0/0  
> [h264 @ 0x7f85f0079c00] nal_unit_type: 1(Coded slice of a non-IDR picture), nal_ref_idc: 1
>   1.89 M-V:  0.001 fd=   0 aq=    0KB vq=  556KB sq=    0B f=0/0  
> [h264 @ 0x7f85f0853600] nal_unit_type: 1(Coded slice of a non-IDR picture), nal_ref_idc: 1
>   1.93 M-V:  0.001 fd=   0 aq=    0KB vq=  561KB sq=    0B f=0/0  
> [h264 @ 0x7f85f0853c00] nal_unit_type: 1(Coded slice of a non-IDR picture), nal_ref_idc: 1
>   1.96 M-V:  0.001 fd=   0 aq=    0KB vq=  539KB sq=    0B f=0/0  
>   2.00 M-V:  0.001 fd=   0 aq=    0KB vq=  643KB sq=    0B f=0/0  
> [h264 @ 0x7f85f101b800] nal_unit_type: 1(Coded slice of a non-IDR picture), nal_ref_idc: 1
>   2.03 M-V:  0.001 fd=   0 aq=    0KB vq=  634KB sq=    0B f=0/0  
> [h264 @ 0x7f85f0090000] nal_unit_type: 6(SEI), nal_ref_idc: 0
> [h264 @ 0x7f85f0090000] nal_unit_type: 5(IDR), nal_ref_idc: 1
>   2.07 M-V:  0.000 fd=   0 aq=    0KB vq=  556KB sq=    0B f=0/0  
> [h264 @ 0x7f85f009d200] nal_unit_type: 1(Coded slice of a non-IDR picture), nal_ref_idc: 1
>   2.10 M-V:  0.001 fd=   0 aq=    0KB vq=  563KB sq=    0B f=0/0  
> [h264 @ 0x7f85f2000000] nal_unit_type: 1(Coded slice of a non-IDR picture), nal_ref_idc: 1
>   2.13 M-V:  0.001 fd=   0 aq=    0KB vq=  550KB sq=    0B f=0/0  
>   2.16 M-V:  0.001 fd=   0 aq=    0KB vq=  567KB sq=    0B f=0/0  
> [h264 @ 0x7f85f0049a00] nal_unit_type: 1(Coded slice of a non-IDR picture), nal_ref_idc: 1
>   2.20 M-V:  0.001 fd=   0 aq=    0KB vq=  571KB sq=    0B f=0/0  
> [h264 @ 0x7f85f005fc00] nal_unit_type: 1(Coded slice of a non-IDR picture), nal_ref_idc: 1
>   2.23 M-V:  0.001 fd=   0 aq=    0KB vq=  573KB sq=    0B f=0/0  
> [h264 @ 0x7f85f0079c00] nal_unit_type: 1(Coded slice of a non-IDR picture), nal_ref_idc: 1
>   2.28 M-V:  0.001 fd=   0 aq=    0KB vq=  576KB sq=    0B f=0/0  
> [h264 @ 0x7f85f0853600] nal_unit_type: 1(Coded slice of a non-IDR picture), nal_ref_idc: 1
>   2.34 M-V:  0.000 fd=   0 aq=    0KB vq=  577KB sq=    0B f=0/0  
> [h264 @ 0x7f85f0853c00] nal_unit_type: 1(Coded slice of a non-IDR picture), nal_ref_idc: 1
>   2.37 M-V:  0.018 fd=   0 aq=    0KB vq=  576KB sq=    0B f=0/0  
> [h264 @ 0x7f85f101b800] nal_unit_type: 1(Coded slice of a non-IDR picture), nal_ref_idc: 1
>   2.41 M-V:  0.001 fd=   0 aq=    0KB vq=  574KB sq=    0B f=0/0  
> [h264 @ 0x7f85f0090000] nal_unit_type: 1(Coded slice of a non-IDR picture), nal_ref_idc: 1
>   2.45 M-V:  0.001 fd=   0 aq=    0KB vq=  573KB sq=    0B f=0/0  
> [h264 @ 0x7f85f009d200] nal_unit_type: 1(Coded slice of a non-IDR picture), nal_ref_idc: 1
>   2.49 M-V:  0.001 fd=   0 aq=    0KB vq=  669KB sq=    0B f=0/0  
> [h264 @ 0x7f85f2000000] nal_unit_type: 1(Coded slice of a non-IDR picture), nal_ref_idc: 1
>   2.53 M-V:  0.001 fd=   0 aq=    0KB vq=  661KB sq=    0B f=0/0  
> [h264 @ 0x7f85f0049a00] nal_unit_type: 6(SEI), nal_ref_idc: 0
> [h264 @ 0x7f85f0049a00] nal_unit_type: 5(IDR), nal_ref_idc: 1
>   2.56 M-V:  0.000 fd=   0 aq=    0KB vq=  574KB sq=    0B f=0/0  
> [h264 @ 0x7f85f005fc00] nal_unit_type: 1(Coded slice of a non-IDR picture), nal_ref_idc: 1
>   2.60 M-V:  0.001 fd=   0 aq=    0KB vq=  581KB sq=    0B f=0/0  
> [h264 @ 0x7f85f0079c00] nal_unit_type: 1(Coded slice of a non-IDR picture), nal_ref_idc: 1
>   2.63 M-V:  0.001 fd=   0 aq=    0KB vq=  569KB sq=    0B f=0/0  
>   2.66 M-V:  0.001 fd=   0 aq=    0KB vq=  584KB sq=    0B f=0/0  
> [h264 @ 0x7f85f0853600] nal_unit_type: 1(Coded slice of a non-IDR picture), nal_ref_idc: 1
>   2.69 M-V:  0.000 fd=   0 aq=    0KB vq=  586KB sq=    0B f=0/0  
> [h264 @ 0x7f85f0853c00] nal_unit_type: 1(Coded slice of a non-IDR picture), nal_ref_idc: 1
>   2.73 M-V:  0.001 fd=   0 aq=    0KB vq=  584KB sq=    0B f=0/0  
> [h264 @ 0x7f85f101b800] nal_unit_type: 1(Coded slice of a non-IDR picture), nal_ref_idc: 1
>   2.77 M-V:  0.000 fd=   0 aq=    0KB vq=  584KB sq=    0B f=0/0  
> [h264 @ 0x7f85f0090000] nal_unit_type: 1(Coded slice of a non-IDR picture), nal_ref_idc: 1
>   2.81 M-V:  0.001 fd=   0 aq=    0KB vq=  583KB sq=    0B f=0/0  
> [h264 @ 0x7f85f009d200] nal_unit_type: 1(Coded slice of a non-IDR picture), nal_ref_idc: 1
>   2.84 M-V:  0.001 fd=   0 aq=    0KB vq=  567KB sq=    0B f=0/0  
>   2.87 M-V:  0.001 fd=   0 aq=    0KB vq=  583KB sq=    0B f=0/0  
> [h264 @ 0x7f85f2000000] nal_unit_type: 1(Coded slice of a non-IDR picture), nal_ref_idc: 1
>   2.90 M-V:  0.001 fd=   0 aq=    0KB vq=  582KB sq=    0B f=0/0  
> [h264 @ 0x7f85f0049a00] nal_unit_type: 1(Coded slice of a non-IDR picture), nal_ref_idc: 1
>   2.93 M-V:  0.000 fd=   0 aq=    0KB vq=  580KB sq=    0B f=0/0  
> [h264 @ 0x7f85f005fc00] nal_unit_type: 1(Coded slice of a non-IDR picture), nal_ref_idc: 1
>   2.97 M-V:  0.001 fd=   0 aq=    0KB vq=  678KB sq=    0B f=0/0  
> [h264 @ 0x7f85f0079c00] nal_unit_type: 1(Coded slice of a non-IDR picture), nal_ref_idc: 1
>   3.00 M-V:  0.001 fd=   0 aq=    0KB vq=  666KB sq=    0B f=0/0  
>   3.04 M-V:  0.001 fd=   0 aq=    0KB vq=  666KB sq=    0B f=0/0  
> [h264 @ 0x7f85f0853600] nal_unit_type: 6(SEI), nal_ref_idc: 0
> [h264 @ 0x7f85f0853600] nal_unit_type: 5(IDR), nal_ref_idc: 1
>   3.07 M-V:  0.001 fd=   0 aq=    0KB vq=  573KB sq=    0B f=0/0  
> [h264 @ 0x7f85f0853c00] nal_unit_type: 1(Coded slice of a non-IDR picture), nal_ref_idc: 1
>   3.10 M-V:  0.000 fd=   0 aq=    0KB vq=  577KB sq=    0B f=0/0  
> [h264 @ 0x7f85f101b800] nal_unit_type: 1(Coded slice of a non-IDR picture), nal_ref_idc: 1
>   3.14 M-V:  0.000 fd=   0 aq=    0KB vq=  579KB sq=    0B f=0/0  
> [h264 @ 0x7f85f0090000] nal_unit_type: 1(Coded slice of a non-IDR picture), nal_ref_idc: 1
>   3.17 M-V:  0.001 fd=   0 aq=    0KB vq=  577KB sq=    0B f=0/0  
>   3.20 M-V:  0.001 fd=   0 aq=    0KB vq=  577KB sq=    0B f=0/0  
> [h264 @ 0x7f85f009d200] nal_unit_type: 1(Coded slice of a non-IDR picture), nal_ref_idc: 1
>   3.24 M-V:  0.001 fd=   0 aq=    0KB vq=  574KB sq=    0B f=0/0  
> [h264 @ 0x7f85f2000000] nal_unit_type: 1(Coded slice of a non-IDR picture), nal_ref_idc: 1
>   3.28 M-V:  0.001 fd=   0 aq=    0KB vq=  572KB sq=    0B f=0/0  
> [h264 @ 0x7f85f0049a00] nal_unit_type: 1(Coded slice of a non-IDR picture), nal_ref_idc: 1
>   3.32 M-V:  0.001 fd=   0 aq=    0KB vq=  571KB sq=    0B f=0/0  
> [h264 @ 0x7f85f005fc00] nal_unit_type: 1(Coded slice of a non-IDR picture), nal_ref_idc: 1
>   3.35 M-V:  0.000 fd=   0 aq=    0KB vq=  568KB sq=    0B f=0/0  
> [h264 @ 0x7f85f0079c00] nal_unit_type: 1(Coded slice of a non-IDR picture), nal_ref_idc: 1
>   3.39 M-V:  0.001 fd=   0 aq=    0KB vq=  565KB sq=    0B f=0/0  
> [h264 @ 0x7f85f0853600] nal_unit_type: 1(Coded slice of a non-IDR picture), nal_ref_idc: 1
>   3.42 M-V:  0.000 fd=   0 aq=    0KB vq=  566KB sq=    0B f=0/0  
>   3.45 M-V:  0.000 fd=   0 aq=    0KB vq=  566KB sq=    0B f=0/0  
> [h264 @ 0x7f85f0853c00] nal_unit_type: 1(Coded slice of a non-IDR picture), nal_ref_idc: 1
>   3.48 M-V:  0.001 fd=   0 aq=    0KB vq=  682KB sq=    0B f=0/0  
> [h264 @ 0x7f85f101b800] nal_unit_type: 1(Coded slice of a non-IDR picture), nal_ref_idc: 1
>   3.55 M-V:  0.001 fd=   0 aq=    0KB vq=  673KB sq=    0B f=0/0  
> [h264 @ 0x7f85f0090000] nal_unit_type: 6(SEI), nal_ref_idc: 0
> [h264 @ 0x7f85f0090000] nal_unit_type: 5(IDR), nal_ref_idc: 1
> [h264 @ 0x7f85f009d200] nal_unit_type: 1(Coded slice of a non-IDR picture), nal_ref_idc: 1
>   3.59 M-V:  0.001 fd=   0 aq=    0KB vq=  574KB sq=    0B f=0/0  
>   3.62 M-V:  0.001 fd=   0 aq=    0KB vq=  574KB sq=    0B f=0/0  
> [h264 @ 0x7f85f2000000] nal_unit_type: 1(Coded slice of a non-IDR picture), nal_ref_idc: 1
>   3.65 M-V:  0.000 fd=   0 aq=    0KB vq=  574KB sq=    0B f=0/0  
> [h264 @ 0x7f85f0049a00] nal_unit_type: 1(Coded slice of a non-IDR picture), nal_ref_idc: 1
>   3.68 M-V:  0.001 fd=   0 aq=    0KB vq=  574KB sq=    0B f=0/0  
> [h264 @ 0x7f85f005fc00] nal_unit_type: 1(Coded slice of a non-IDR picture), nal_ref_idc: 1
>   3.71 M-V:  0.000 fd=   0 aq=    0KB vq=  558KB sq=    0B f=0/0  
>   3.74 M-V:  0.000 fd=   0 aq=    0KB vq=  573KB sq=    0B f=0/0  
> [h264 @ 0x7f85f0079c00] nal_unit_type: 1(Coded slice of a non-IDR picture), nal_ref_idc: 1
>   3.78 M-V:  0.001 fd=   0 aq=    0KB vq=  573KB sq=    0B f=0/0  
> [h264 @ 0x7f85f0853600] nal_unit_type: 1(Coded slice of a non-IDR picture), nal_ref_idc: 1
>   3.82 M-V:  0.001 fd=   0 aq=    0KB vq=  573KB sq=    0B f=0/0  
> [h264 @ 0x7f85f0853c00] nal_unit_type: 1(Coded slice of a non-IDR picture), nal_ref_idc: 1
>   3.85 M-V:  0.000 fd=   0 aq=    0KB vq=  572KB sq=    0B f=0/0  
> [h264 @ 0x7f85f101b800] nal_unit_type: 1(Coded slice of a non-IDR picture), nal_ref_idc: 1
>   3.89 M-V:  0.000 fd=   0 aq=    0KB vq=  571KB sq=    0B f=0/0  
> [h264 @ 0x7f85f0090000] nal_unit_type: 1(Coded slice of a non-IDR picture), nal_ref_idc: 1
>   3.92 M-V:  0.001 fd=   0 aq=    0KB vq=  554KB sq=    0B f=0/0  
>   3.95 M-V:  0.001 fd=   0 aq=    0KB vq=  571KB sq=    0B f=0/0  
> [h264 @ 0x7f85f009d200] nal_unit_type: 1(Coded slice of a non-IDR picture), nal_ref_idc: 1
>   3.98 M-V:  0.001 fd=   0 aq=    0KB vq=  691KB sq=    0B f=0/0  
> [h264 @ 0x7f85f2000000] nal_unit_type: 1(Coded slice of a non-IDR picture), nal_ref_idc: 1
>   4.03 M-V:  0.000 fd=   0 aq=    0KB vq=  681KB sq=    0B f=0/0  
> [h264 @ 0x7f85f0049a00] nal_unit_type: 6(SEI), nal_ref_idc: 0
> [h264 @ 0x7f85f0049a00] nal_unit_type: 5(IDR), nal_ref_idc: 1
>   4.07 M-V:  0.001 fd=   0 aq=    0KB vq=  573KB sq=    0B f=0/0  
> [h264 @ 0x7f85f005fc00] nal_unit_type: 1(Coded slice of a non-IDR picture), nal_ref_idc: 1
>   4.10 M-V:  0.000 fd=   0 aq=    0KB vq=  579KB sq=    0B f=0/0  
> [h264 @ 0x7f85f0079c00] nal_unit_type: 1(Coded slice of a non-IDR picture), nal_ref_idc: 1
>   4.14 M-V:  0.001 fd=   0 aq=    0KB vq=  580KB sq=    0B f=0/0  
> [h264 @ 0x7f85f0853600] nal_unit_type: 1(Coded slice of a non-IDR picture), nal_ref_idc: 1
>   4.17 M-V:  0.000 fd=   0 aq=    0KB vq=  568KB sq=    0B f=0/0  
>   4.20 M-V:  0.000 fd=   0 aq=    0KB vq=  581KB sq=    0B f=0/0  
> [h264 @ 0x7f85f0853c00] nal_unit_type: 1(Coded slice of a non-IDR picture), nal_ref_idc: 1
>   4.23 M-V:  0.001 fd=   0 aq=    0KB vq=  580KB sq=    0B f=0/0  
> [h264 @ 0x7f85f101b800] nal_unit_type: 1(Coded slice of a non-IDR picture), nal_ref_idc: 1
>   4.27 M-V:  0.001 fd=   0 aq=    0KB vq=  579KB sq=    0B f=0/0  
> [h264 @ 0x7f85f0090000] nal_unit_type: 1(Coded slice of a non-IDR picture), nal_ref_idc: 1
>   4.30 M-V:  0.000 fd=   0 aq=    0KB vq=  578KB sq=    0B f=0/0  
> [h264 @ 0x7f85f009d200] nal_unit_type: 1(Coded slice of a non-IDR picture), nal_ref_idc: 1
>   4.34 M-V:  0.001 fd=   0 aq=    0KB vq=  564KB sq=    0B f=0/0  
>   4.37 M-V:  0.001 fd=   0 aq=    0KB vq=  578KB sq=    0B f=0/0  
> [h264 @ 0x7f85f2000000] nal_unit_type: 1(Coded slice of a non-IDR picture), nal_ref_idc: 1
>   4.40 M-V:  0.001 fd=   0 aq=    0KB vq=  577KB sq=    0B f=0/0  
> [h264 @ 0x7f85f0049a00] nal_unit_type: 1(Coded slice of a non-IDR picture), nal_ref_idc: 1
>   4.43 M-V:  0.001 fd=   0 aq=    0KB vq=  576KB sq=    0B f=0/0  
> [h264 @ 0x7f85f005fc00] nal_unit_type: 1(Coded slice of a non-IDR picture), nal_ref_idc: 1
>   4.47 M-V:  0.000 fd=   0 aq=    0KB vq=  691KB sq=    0B f=0/0  
> [h264 @ 0x7f85f0079c00] nal_unit_type: 1(Coded slice of a non-IDR picture), nal_ref_idc: 1
>   4.50 M-V:  0.001 fd=   0 aq=    0KB vq=  681KB sq=    0B f=0/0  
>   4.54 M-V:  0.001 fd=   0 aq=    0KB vq=  681KB sq=    0B f=0/0  
> [h264 @ 0x7f85f0853600] nal_unit_type: 6(SEI), nal_ref_idc: 0
> [h264 @ 0x7f85f0853600] nal_unit_type: 5(IDR), nal_ref_idc: 1
>   4.57 M-V:  0.001 fd=   0 aq=    0KB vq=  559KB sq=    0B f=0/0  
> [h264 @ 0x7f85f0853c00] nal_unit_type: 1(Coded slice of a non-IDR picture), nal_ref_idc: 1
>   4.61 M-V:  0.000 fd=   0 aq=    0KB vq=  563KB sq=    0B f=0/0  
> [h264 @ 0x7f85f101b800] nal_unit_type: 1(Coded slice of a non-IDR picture), nal_ref_idc: 1
>   4.64 M-V:  0.000 fd=   0 aq=    0KB vq=  564KB sq=    0B f=0/0  
> [h264 @ 0x7f85f0090000] nal_unit_type: 1(Coded slice of a non-IDR picture), nal_ref_idc: 1
>   4.67 M-V:  0.001 fd=   0 aq=    0KB vq=  554KB sq=    0B f=0/0  
>   4.70 M-V:  0.001 fd=   0 aq=    0KB vq=  564KB sq=    0B f=0/0  
> [h264 @ 0x7f85f009d200] nal_unit_type: 1(Coded slice of a non-IDR picture), nal_ref_idc: 1
>   4.73 M-V:  0.001 fd=   0 aq=    0KB vq=  564KB sq=    0B f=0/0  
> [h264 @ 0x7f85f2000000] nal_unit_type: 1(Coded slice of a non-IDR picture), nal_ref_idc: 1
>   4.76 M-V:  0.001 fd=   0 aq=    0KB vq=  560KB sq=    0B f=0/0  
> [h264 @ 0x7f85f0049a00] nal_unit_type: 1(Coded slice of a non-IDR picture), nal_ref_idc: 1
>   4.80 M-V:  0.001 fd=   0 aq=    0KB vq=  545KB sq=    0B f=0/0  
>   4.83 M-V:  0.001 fd=   0 aq=    0KB vq=  556KB sq=    0B f=0/0  
> [h264 @ 0x7f85f005fc00] nal_unit_type: 1(Coded slice of a non-IDR picture), nal_ref_idc: 1
>   4.86 M-V:  0.000 fd=   0 aq=    0KB vq=  553KB sq=    0B f=0/0  
> [h264 @ 0x7f85f0079c00] nal_unit_type: 1(Coded slice of a non-IDR picture), nal_ref_idc: 1
>   4.90 M-V:  0.001 fd=   0 aq=    0KB vq=  549KB sq=    0B f=0/0  
> [h264 @ 0x7f85f0853600] nal_unit_type: 1(Coded slice of a non-IDR picture), nal_ref_idc: 1
>   4.93 M-V:  0.001 fd=   0 aq=    0KB vq=  546KB sq=    0B f=0/0  
> [h264 @ 0x7f85f0853c00] nal_unit_type: 1(Coded slice of a non-IDR picture), nal_ref_idc: 1
>   4.97 M-V:  0.001 fd=   0 aq=    0KB vq=  668KB sq=    0B f=0/0  
> [h264 @ 0x7f85f101b800] nal_unit_type: 1(Coded slice of a non-IDR picture), nal_ref_idc: 1
>   5.00 M-V:  0.001 fd=   0 aq=    0KB vq=  651KB sq=    0B f=0/0  
>   5.04 M-V:  0.001 fd=   0 aq=    0KB vq=  656KB sq=    0B f=0/0  
> [h264 @ 0x7f85f0090000] nal_unit_type: 6(SEI), nal_ref_idc: 0
> [h264 @ 0x7f85f0090000] nal_unit_type: 5(IDR), nal_ref_idc: 1
>   5.08 M-V:  0.001 fd=   0 aq=    0KB vq=  527KB sq=    0B f=0/0  
> [h264 @ 0x7f85f009d200] nal_unit_type: 1(Coded slice of a non-IDR picture), nal_ref_idc: 1
>   5.11 M-V:  0.000 fd=   0 aq=    0KB vq=  530KB sq=    0B f=0/0  
> [h264 @ 0x7f85f2000000] nal_unit_type: 1(Coded slice of a non-IDR picture), nal_ref_idc: 1
>   5.15 M-V:  0.000 fd=   0 aq=    0KB vq=  533KB sq=    0B f=0/0  
> [h264 @ 0x7f85f0049a00] nal_unit_type: 1(Coded slice of a non-IDR picture), nal_ref_idc: 1
>   5.18 M-V:  0.001 fd=   0 aq=    0KB vq=  531KB sq=    0B f=0/0  
> [h264 @ 0x7f85f005fc00] nal_unit_type: 1(Coded slice of a non-IDR picture), nal_ref_idc: 1
>   5.21 M-V:  0.001 fd=   0 aq=    0KB vq=  519KB sq=    0B f=0/0  
>   5.25 M-V:  0.001 fd=   0 aq=    0KB vq=  531KB sq=    0B f=0/0  
> [h264 @ 0x7f85f0079c00] nal_unit_type: 1(Coded slice of a non-IDR picture), nal_ref_idc: 1
>   5.29 M-V:  0.000 fd=   0 aq=    0KB vq=  528KB sq=    0B f=0/0  
> [h264 @ 0x7f85f0853600] nal_unit_type: 1(Coded slice of a non-IDR picture), nal_ref_idc: 1
>   5.32 M-V:  0.001 fd=   0 aq=    0KB vq=  528KB sq=    0B f=0/0  
> [h264 @ 0x7f85f0853c00] nal_unit_type: 1(Coded slice of a non-IDR picture), nal_ref_idc: 1
>   5.35 M-V:  0.000 fd=   0 aq=    0KB vq=  526KB sq=    0B f=0/0  
> [h264 @ 0x7f85f101b800] nal_unit_type: 1(Coded slice of a non-IDR picture), nal_ref_idc: 1
>   5.38 M-V:  0.001 fd=   0 aq=    0KB vq=  512KB sq=    0B f=0/0  
>   5.41 M-V:  0.001 fd=   0 aq=    0KB vq=  524KB sq=    0B f=0/0  
> [h264 @ 0x7f85f0090000] nal_unit_type: 1(Coded slice of a non-IDR picture), nal_ref_idc: 1
>   5.45 M-V:  0.001 fd=   0 aq=    0KB vq=  520KB sq=    0B f=0/0  
> [h264 @ 0x7f85f009d200] nal_unit_type: 1(Coded slice of a non-IDR picture), nal_ref_idc: 1
>   5.48 M-V:  0.001 fd=   0 aq=    0KB vq=  650KB sq=    0B f=0/0  
> [h264 @ 0x7f85f2000000] nal_unit_type: 1(Coded slice of a non-IDR picture), nal_ref_idc: 1
>   5.52 M-V:  0.000 fd=   0 aq=    0KB vq=  641KB sq=    0B f=0/0  
> [h264 @ 0x7f85f0049a00] nal_unit_type: 6(SEI), nal_ref_idc: 0
> [h264 @ 0x7f85f0049a00] nal_unit_type: 5(IDR), nal_ref_idc: 1
>   5.55 M-V:  0.000 fd=   0 aq=    0KB vq=  516KB sq=    0B f=0/0  
> [h264 @ 0x7f85f005fc00] nal_unit_type: 1(Coded slice of a non-IDR picture), nal_ref_idc: 1
>   5.59 M-V:  0.000 fd=   0 aq=    0KB vq=  511KB sq=    0B f=0/0  
>   5.62 M-V:  0.000 fd=   0 aq=    0KB vq=  520KB sq=    0B f=0/0  
> [h264 @ 0x7f85f0079c00] nal_unit_type: 1(Coded slice of a non-IDR picture), nal_ref_idc: 1
>   5.66 M-V:  0.000 fd=   0 aq=    0KB vq=  520KB sq=    0B f=0/0  
> [h264 @ 0x7f85f0853600] nal_unit_type: 1(Coded slice of a non-IDR picture), nal_ref_idc: 1
>   5.69 M-V:  0.001 fd=   0 aq=    0KB vq=  521KB sq=    0B f=0/0  
> [h264 @ 0x7f85f0853c00] nal_unit_type: 1(Coded slice of a non-IDR picture), nal_ref_idc: 1
>   5.73 M-V:  0.001 fd=   0 aq=    0KB vq=  522KB sq=    0B f=0/0  
> [h264 @ 0x7f85f101b800] nal_unit_type: 1(Coded slice of a non-IDR picture), nal_ref_idc: 1
>   5.77 M-V:  0.000 fd=   0 aq=    0KB vq=  521KB sq=    0B f=0/0  
> [h264 @ 0x7f85f0090000] nal_unit_type: 1(Coded slice of a non-IDR picture), nal_ref_idc: 1
>   5.81 M-V:  0.001 fd=   0 aq=    0KB vq=  522KB sq=    0B f=0/0  
> [h264 @ 0x7f85f009d200] nal_unit_type: 1(Coded slice of a non-IDR picture), nal_ref_idc: 1
>   5.84 M-V:  0.000 fd=   0 aq=    0KB vq=  511KB sq=    0B f=0/0  
>   5.87 M-V:  0.000 fd=   0 aq=    0KB vq=  521KB sq=    0B f=0/0  
> [h264 @ 0x7f85f2000000] nal_unit_type: 1(Coded slice of a non-IDR picture), nal_ref_idc: 1
>   5.90 M-V:  0.001 fd=   0 aq=    0KB vq=  522KB sq=    0B f=0/0  
> [h264 @ 0x7f85f0049a00] nal_unit_type: 1(Coded slice of a non-IDR picture), nal_ref_idc: 1
>   5.93 M-V:  0.000 fd=   0 aq=    0KB vq=  523KB sq=    0B f=0/0  
> [h264 @ 0x7f85f005fc00] nal_unit_type: 1(Coded slice of a non-IDR picture), nal_ref_idc: 1
>   5.97 M-V:  0.001 fd=   0 aq=    0KB vq=  654KB sq=    0B f=0/0  
> [h264 @ 0x7f85f0079c00] nal_unit_type: 1(Coded slice of a non-IDR picture), nal_ref_idc: 1
>   6.00 M-V:  0.001 fd=   0 aq=    0KB vq=  647KB sq=    0B f=0/0  
>   6.04 M-V:  0.001 fd=   0 aq=    0KB vq=  647KB sq=    0B f=0/0  
> [h264 @ 0x7f85f0853600] nal_unit_type: 6(SEI), nal_ref_idc: 0
> [h264 @ 0x7f85f0853600] nal_unit_type: 5(IDR), nal_ref_idc: 1
>   6.07 M-V:  0.001 fd=   0 aq=    0KB vq=  515KB sq=    0B f=0/0  
> [h264 @ 0x7f85f0853c00] nal_unit_type: 1(Coded slice of a non-IDR picture), nal_ref_idc: 1
>   6.11 M-V:  0.001 fd=   0 aq=    0KB vq=  523KB sq=    0B f=0/0  
> [h264 @ 0x7f85f101b800] nal_unit_type: 1(Coded slice of a non-IDR picture), nal_ref_idc: 1
>   6.15 M-V:  0.000 fd=   0 aq=    0KB vq=  527KB sq=    0B f=0/0  
> [h264 @ 0x7f85f0090000] nal_unit_type: 1(Coded slice of a non-IDR picture), nal_ref_idc: 1
>   6.18 M-V:  0.001 fd=   0 aq=    0KB vq=  529KB sq=    0B f=0/0  
> [h264 @ 0x7f85f009d200] nal_unit_type: 1(Coded slice of a non-IDR picture), nal_ref_idc: 1
>   6.22 M-V:  0.001 fd=   0 aq=    0KB vq=  531KB sq=    0B f=0/0  
> [h264 @ 0x7f85f2000000] nal_unit_type: 1(Coded slice of a non-IDR picture), nal_ref_idc: 1
>   6.26 M-V:  0.000 fd=   0 aq=    0KB vq=  534KB sq=    0B f=0/0  
> [h264 @ 0x7f85f0049a00] nal_unit_type: 1(Coded slice of a non-IDR picture), nal_ref_idc: 1
>   6.30 M-V:  0.001 fd=   0 aq=    0KB vq=  523KB sq=    0B f=0/0  
>   6.33 M-V:  0.001 fd=   0 aq=    0KB vq=  538KB sq=    0B f=0/0  
> [h264 @ 0x7f85f005fc00] nal_unit_type: 1(Coded slice of a non-IDR picture), nal_ref_idc: 1
>   6.36 M-V:  0.000 fd=   0 aq=    0KB vq=  542KB sq=    0B f=0/0  
> [h264 @ 0x7f85f0079c00] nal_unit_type: 1(Coded slice of a non-IDR picture), nal_ref_idc: 1
>   6.40 M-V:  0.001 fd=   0 aq=    0KB vq=  544KB sq=    0B f=0/0  
> [h264 @ 0x7f85f0853600] nal_unit_type: 1(Coded slice of a non-IDR picture), nal_ref_idc: 1
>   6.43 M-V:  0.001 fd=   0 aq=    0KB vq=  548KB sq=    0B f=0/0  
> [h264 @ 0x7f85f0853c00] nal_unit_type: 1(Coded slice of a non-IDR picture), nal_ref_idc: 1
>   6.46 M-V:  0.001 fd=   0 aq=    0KB vq=  536KB sq=    0B f=0/0  
>   6.49 M-V:  0.001 fd=   0 aq=    0KB vq=  703KB sq=    0B f=0/0  
> [h264 @ 0x7f85f101b800] nal_unit_type: 1(Coded slice of a non-IDR picture), nal_ref_idc: 1
>   6.53 M-V:  0.001 fd=   0 aq=    0KB vq=  697KB sq=    0B f=0/0  
> [h264 @ 0x7f85f0090000] nal_unit_type: 6(SEI), nal_ref_idc: 0
> [h264 @ 0x7f85f0090000] nal_unit_type: 5(IDR), nal_ref_idc: 1
>   6.56 M-V:  0.000 fd=   0 aq=    0KB vq=  559KB sq=    0B f=0/0  
> [h264 @ 0x7f85f009d200] nal_unit_type: 1(Coded slice of a non-IDR picture), nal_ref_idc: 1
>   6.60 M-V:  0.000 fd=   0 aq=    0KB vq=  563KB sq=    0B f=0/0  
> [h264 @ 0x7f85f2000000] nal_unit_type: 1(Coded slice of a non-IDR picture), nal_ref_idc: 1
>   6.63 M-V:  0.001 fd=   0 aq=    0KB vq=  558KB sq=    0B f=0/0  
>   6.66 M-V:  0.001 fd=   0 aq=    0KB vq=  568KB sq=    0B f=0/0  
> [h264 @ 0x7f85f0049a00] nal_unit_type: 1(Coded slice of a non-IDR picture), nal_ref_idc: 1
>   6.69 M-V:  0.001 fd=   0 aq=    0KB vq=  568KB sq=    0B f=0/0  
> [h264 @ 0x7f85f005fc00] nal_unit_type: 1(Coded slice of a non-IDR picture), nal_ref_idc: 1
>   6.73 M-V:  0.000 fd=   0 aq=    0KB vq=  570KB sq=    0B f=0/0  
> [h264 @ 0x7f85f0079c00] nal_unit_type: 1(Coded slice of a non-IDR picture), nal_ref_idc: 1
>   6.77 M-V:  0.001 fd=   0 aq=    0KB vq=  572KB sq=    0B f=0/0  
> [h264 @ 0x7f85f0853600] nal_unit_type: 1(Coded slice of a non-IDR picture), nal_ref_idc: 1
>   6.81 M-V:  0.001 fd=   0 aq=    0KB vq=  572KB sq=    0B f=0/0  
> [h264 @ 0x7f85f0853c00] nal_unit_type: 1(Coded slice of a non-IDR picture), nal_ref_idc: 1
>   6.84 M-V:  0.000 fd=   0 aq=    0KB vq=  562KB sq=    0B f=0/0  
>   6.87 M-V:  0.000 fd=   0 aq=    0KB vq=  574KB sq=    0B f=0/0  
> [h264 @ 0x7f85f101b800] nal_unit_type: 1(Coded slice of a non-IDR picture), nal_ref_idc: 1
>   6.90 M-V:  0.001 fd=   0 aq=    0KB vq=  574KB sq=    0B f=0/0  
> [h264 @ 0x7f85f0090000] nal_unit_type: 1(Coded slice of a non-IDR picture), nal_ref_idc: 1
>   6.93 M-V:  0.001 fd=   0 aq=    0KB vq=  577KB sq=    0B f=0/0  
> [h264 @ 0x7f85f009d200] nal_unit_type: 1(Coded slice of a non-IDR picture), nal_ref_idc: 1
>   6.97 M-V:  0.001 fd=   0 aq=    0KB vq=  724KB sq=    0B f=0/0  
> [h264 @ 0x7f85f2000000] nal_unit_type: 1(Coded slice of a non-IDR picture), nal_ref_idc: 1
>   7.00 M-V:  0.001 fd=   0 aq=    0KB vq=  717KB sq=    0B f=0/0  
>   7.04 M-V:  0.001 fd=   0 aq=    0KB vq=  717KB sq=    0B f=0/0  
> [h264 @ 0x7f85f0049a00] nal_unit_type: 6(SEI), nal_ref_idc: 0
> [h264 @ 0x7f85f0049a00] nal_unit_type: 5(IDR), nal_ref_idc: 1
>   7.08 M-V:  0.001 fd=   0 aq=    0KB vq=  582KB sq=    0B f=0/0  
> [h264 @ 0x7f85f005fc00] nal_unit_type: 1(Coded slice of a non-IDR picture), nal_ref_idc: 1
>   7.11 M-V:  0.001 fd=   0 aq=    0KB vq=  586KB sq=    0B f=0/0  
> [h264 @ 0x7f85f0079c00] nal_unit_type: 1(Coded slice of a non-IDR picture), nal_ref_idc: 1
>   7.14 M-V:  0.001 fd=   0 aq=    0KB vq=  590KB sq=    0B f=0/0  
> [h264 @ 0x7f85f0853600] nal_unit_type: 1(Coded slice of a non-IDR picture), nal_ref_idc: 1
>   7.17 M-V:  0.001 fd=   0 aq=    0KB vq=  578KB sq=    0B f=0/0  
>   7.20 M-V:  0.001 fd=   0 aq=    0KB vq=  589KB sq=    0B f=0/0  
> [h264 @ 0x7f85f0853c00] nal_unit_type: 1(Coded slice of a non-IDR picture), nal_ref_idc: 1
>   7.23 M-V:  0.001 fd=   0 aq=    0KB vq=  589KB sq=    0B f=0/0  
> [h264 @ 0x7f85f101b800] nal_unit_type: 1(Coded slice of a non-IDR picture), nal_ref_idc: 1
>   7.27 M-V:  0.000 fd=   0 aq=    0KB vq=  589KB sq=    0B f=0/0  
> [h264 @ 0x7f85f0090000] nal_unit_type: 1(Coded slice of a non-IDR picture), nal_ref_idc: 1
>   7.30 M-V:  0.001 fd=   0 aq=    0KB vq=  588KB sq=    0B f=0/0  
> [h264 @ 0x7f85f009d200] nal_unit_type: 1(Coded slice of a non-IDR picture), nal_ref_idc: 1
>   7.34 M-V:  0.001 fd=   0 aq=    0KB vq=  574KB sq=    0B f=0/0  
>   7.37 M-V:  0.001 fd=   0 aq=    0KB vq=  587KB sq=    0B f=0/0  
> [h264 @ 0x7f85f2000000] nal_unit_type: 1(Coded slice of a non-IDR picture), nal_ref_idc: 1
>   7.40 M-V:  0.001 fd=   0 aq=    0KB vq=  584KB sq=    0B f=0/0  
> [h264 @ 0x7f85f0049a00] nal_unit_type: 1(Coded slice of a non-IDR picture), nal_ref_idc: 1
>   7.43 M-V:  0.000 fd=   0 aq=    0KB vq=  582KB sq=    0B f=0/0  
> [h264 @ 0x7f85f005fc00] nal_unit_type: 1(Coded slice of a non-IDR picture), nal_ref_idc: 1
>   7.47 M-V:  0.000 fd=   0 aq=    0KB vq=  749KB sq=    0B f=0/0  
> [h264 @ 0x7f85f0079c00] nal_unit_type: 1(Coded slice of a non-IDR picture), nal_ref_idc: 1
>   7.50 M-V:  0.000 fd=   0 aq=    0KB vq=  734KB sq=    0B f=0/0  
>   7.53 M-V:  0.000 fd=   0 aq=    0KB vq=  739KB sq=    0B f=0/0
>
> Here’s another thing, when I build ffplay, there’s a lot of warnings(truncated):
> ld: warning: text-based stub file /System/Library/Frameworks//Foundation.framework/Foundation.tbd and library file /System/Library/Frameworks//Foundation.framework/Foundation are out of sync. Falling back to library file for linking.
> ld: warning: ld: warning: text-based stub file /System/Library/Frameworks//Foundation.framework/Foundation.tbd and library file /System/Library/Frameworks//Foundation.framework/Foundation are out of sync. Falling back to library file for linking.text-based stub file /System/Library/Frameworks//Foundation.framework/Foundation.tbd and library file /System/Library/Frameworks//Foundation.framework/Foundation are out of sync. Falling back to library file for linking.
>
> ld: warning: ld: warning: ld: warning: text-based stub file /System/Library/Frameworks//AVFoundation.framework/AVFoundation.tbd and library file /System/Library/Frameworks//AVFoundation.framework/AVFoundation are out of sync. Falling back to library file for linking.text-based stub file /System/Library/Frameworks//AVFoundation.framework/AVFoundation.tbd and library file /System/Library/Frameworks//AVFoundation.framework/AVFoundation are out of sync. Falling back to library file for linking.text-based stub file /System/Library/Frameworks//AVFoundation.framework/AVFoundation.tbd and library file /System/Library/Frameworks//AVFoundation.framework/AVFoundation are out of sync. Falling back to library file for linking.
>
>
> ld: warning: ld: warning: ld: warning: text-based stub file /System/Library/Frameworks//CoreVideo.framework/CoreVideo.tbd and library file /System/Library/Frameworks//CoreVideo.framework/CoreVideo are out of sync. Falling back to library file for linking.text-based stub file /System/Library/Frameworks//CoreVideo.framework/CoreVideo.tbd and library file /System/Library/Frameworks//CoreVideo.framework/CoreVideo are out of sync. Falling back to library file for linking.
> text-based stub file /System/Library/Frameworks//CoreVideo.framework/CoreVideo.tbd and library file /System/Library/Frameworks//CoreVideo.framework/CoreVideo are out of sync. Falling back to library file for linking.
> _______________________________________________
> ffmpeg-user mailing list
> [hidden email]
> https://ffmpeg.org/mailman/listinfo/ffmpeg-user
>
> To unsubscribe, visit link above, or email
> [hidden email] with subject "unsubscribe".

_______________________________________________
ffmpeg-user mailing list
[hidden email]
https://ffmpeg.org/mailman/listinfo/ffmpeg-user

To unsubscribe, visit link above, or email
[hidden email] with subject "unsubscribe".
Reply | Threaded
Open this post in threaded view
|

Re: ffplay black screen

韦林
In reply to this post by 桃源老師-2
Hi,
    Thanks very much! After I upgrade SDL2 version 2.0.9, every thing is fine.

> 在 2019年3月8日,上午12:14,桃源老師 <[hidden email]> 写道:
>
> Hi,
>
>> 2019/03/08 午前0:25、桃源老師 <[hidden email]>のメール:
>>
>> You can fix it by using Development version of SDL2
>
> My information was a bit old.  Black screen on macOS 10.14 was fixed in SDL2 2.0.9.
>
>
> https://discourse.libsdl.org/t/sdl-2-0-9-released/25228
>
>
>
> Best Regards,
>
>
> // Miya aka. TougenRoushi
>
> _______________________________________________
> ffmpeg-user mailing list
> [hidden email]
> https://ffmpeg.org/mailman/listinfo/ffmpeg-user
>
> To unsubscribe, visit link above, or email
> [hidden email] with subject "unsubscribe".

_______________________________________________
ffmpeg-user mailing list
[hidden email]
https://ffmpeg.org/mailman/listinfo/ffmpeg-user

To unsubscribe, visit link above, or email
[hidden email] with subject "unsubscribe".