ffmpeg profesional decoder compatibility mpegts

classic Classic list List threaded Threaded
20 messages Options
Reply | Threaded
Open this post in threaded view
|

ffmpeg profesional decoder compatibility mpegts

AlexandreL
Hi all,

I'm using ffmpeg for a lot of tricks (mainly for encoding) BUT i can't use professional decoders (Ateme, Ericsson, Tandberg, etc...) to decoding my stream (udp or rtp over mpeg2ts).

Do you know why ?
The stream is really good decoding by any avconv/ffmpeg player or vlc or raspberry or whatever BUT NOT by professional decoders.
They "see" the stream (they probe it) but they can't decode it and show the service, pid program, video and audio.

I did this :

avconv -i udp://@:5006 -map 0  -codec copy -streamid 0:512 -streamid 1:4112 -metadata:s:a:0 language=eng -metadata service_name=test  -metadata service_provider=test2 -mpegts_service_id 0x1  -f mpegts udp://192.168.1.54:5004?pkt_size=1316?ttl=8

Thanks,
Reply | Threaded
Open this post in threaded view
|

Re: ffmpeg profesional decoder compatibility mpegts

Carl Eugen Hoyos
AlexandreL <licinio.alexandre <at> gmail.com> writes:

> I did this :
>
> avconv

This looks like an intentionally broken version
of FFmpeg that contains several hundred known
bugs not present in FFmpeg, some of the security
relevant. Please understand that we cannot
support it here.

Carl Eugen

_______________________________________________
ffmpeg-user mailing list
[hidden email]
http://ffmpeg.org/mailman/listinfo/ffmpeg-user
Reply | Threaded
Open this post in threaded view
|

Re: ffmpeg profesional decoder compatibility mpegts

anshul
In reply to this post by AlexandreL
On 11/20/2014 07:18 PM, AlexandreL wrote:

> Hi all,
>
> I'm using ffmpeg for a lot of tricks (mainly for encoding) BUT i can't use
> professional decoders (Ateme, Ericsson, Tandberg, etc...) to decoding my
> stream (udp or rtp over mpeg2ts).
>
> Do you know why ?
> The stream is really good decoding by any avconv/ffmpeg player or vlc or
> raspberry or whatever BUT NOT by professional decoders.
> They "see" the stream (they probe it) but they can't decode it and show the
> service, pid program, video and audio.
> I did this :
>
> avconv -i udp://@:5006 -map 0  -codec copy -streamid 0:512 -streamid 1:4112
> -metadata:s:a:0 language=eng -metadata service_name=test  -metadata
> service_provider=test2 -mpegts_service_id 0x1  -f mpegts
> udp://192.168.1.54:5004?pkt_size=1316?ttl=8
On ffmpeg mailing list people would like to know, what command you used
by ffmpeg
not avconv.

Complete uncut ffmpeg console output is what any one want to provide any
info.

from avconv command it looks like you have some encoder installed on
your PC, which is
providing stream, check whether bare output of encoder of each stream is
decodable by
its refrence decoder, FFmpeg is very stable code, to give user maximum
out of video.
It supress some warning, may be debug log from FFmpeg would be helpful
to you.

-Anshul
_______________________________________________
ffmpeg-user mailing list
[hidden email]
http://ffmpeg.org/mailman/listinfo/ffmpeg-user
Reply | Threaded
Open this post in threaded view
|

Re: ffmpeg profesional decoder compatibility mpegts

AlexandreL
In reply to this post by Carl Eugen Hoyos
Sorry for avconv but also with ffmpeg it's not working

ffmpeg -i udp://@:5006  -vcodec copy -acodec copy -streamid 0:512 -streamid 1:4112 -metadata:s:a:0 language=eng -metadata service_name=test1  -metadata service_provider=test2 -mpegts_service_id 0x1  -f mpegts udp://192.168.1.54:5004?pkt_size=1316?ttl=8

Thanks,
Reply | Threaded
Open this post in threaded view
|

Re: ffmpeg profesional decoder compatibility mpegts

AlexandreL
In reply to this post by anshul
Sorry, i'm a new user
i post my ffmpeg message during transcoding.


c-100-2@c1002-ProLiant-DL360-G6:~$ ffmpeg -i udp://@:5006  -vcodec copy -acodec copy -streamid 0:512 -streamid 1:4112 -metadata:s:a:0 language=eng -metadata service_name=test  -metadata service_provider=test2 -mpegts_service_id 0x1  -f mpegts udp://192.168.1.10:5004?pkt_size=1316?ttl=8
ffmpeg version 0.8.16-4:0.8.16-0ubuntu0.12.04.1, Copyright (c) 2000-2014 the Libav developers
  built on Sep 16 2014 18:33:49 with gcc 4.6.3
The ffmpeg program is only provided for script compatibility and will be removed
in a future release. It has been deprecated in the Libav project to allow for
incompatible command line syntax improvements in its replacement called avconv
(see Changelog for details). Please use avconv instead.
[h264 @ 0x1cc6ac0] non-existing PPS referenced
[h264 @ 0x1cc6ac0] non-existing PPS 0 referenced
[h264 @ 0x1cc6ac0] decode_slice_header error
[h264 @ 0x1cc6ac0] non-existing PPS 0 referenced
[h264 @ 0x1cc6ac0] decode_slice_header error
[h264 @ 0x1cc6ac0] non-existing PPS 0 referenced
[h264 @ 0x1cc6ac0] decode_slice_header error
[h264 @ 0x1cc6ac0] non-existing PPS 0 referenced
[h264 @ 0x1cc6ac0] decode_slice_header error
[h264 @ 0x1cc6ac0] no frame!
[h264 @ 0x1cc6ac0] non-existing PPS referenced
[h264 @ 0x1cc6ac0] non-existing PPS 0 referenced
[h264 @ 0x1cc6ac0] decode_slice_header error
[h264 @ 0x1cc6ac0] non-existing PPS 0 referenced
[h264 @ 0x1cc6ac0] decode_slice_header error
[h264 @ 0x1cc6ac0] non-existing PPS 0 referenced
[h264 @ 0x1cc6ac0] decode_slice_header error
[h264 @ 0x1cc6ac0] non-existing PPS 0 referenced
[h264 @ 0x1cc6ac0] decode_slice_header error
[h264 @ 0x1cc6ac0] no frame!
[h264 @ 0x1cc6ac0] non-existing PPS referenced
[h264 @ 0x1cc6ac0] non-existing PPS 0 referenced
[h264 @ 0x1cc6ac0] decode_slice_header error
[h264 @ 0x1cc6ac0] non-existing PPS 0 referenced
[h264 @ 0x1cc6ac0] decode_slice_header error
[h264 @ 0x1cc6ac0] non-existing PPS 0 referenced
[h264 @ 0x1cc6ac0] decode_slice_header error
[h264 @ 0x1cc6ac0] non-existing PPS 0 referenced
[h264 @ 0x1cc6ac0] decode_slice_header error
[h264 @ 0x1cc6ac0] no frame!
[h264 @ 0x1cc6ac0] non-existing PPS referenced
[h264 @ 0x1cc6ac0] non-existing PPS 0 referenced
[h264 @ 0x1cc6ac0] decode_slice_header error
[h264 @ 0x1cc6ac0] non-existing PPS 0 referenced
[h264 @ 0x1cc6ac0] decode_slice_header error
[h264 @ 0x1cc6ac0] non-existing PPS 0 referenced
[h264 @ 0x1cc6ac0] decode_slice_header error
[h264 @ 0x1cc6ac0] non-existing PPS 0 referenced
[h264 @ 0x1cc6ac0] decode_slice_header error
[h264 @ 0x1cc6ac0] no frame!
[h264 @ 0x1cc6ac0] non-existing PPS referenced
[h264 @ 0x1cc6ac0] non-existing PPS 0 referenced
[h264 @ 0x1cc6ac0] decode_slice_header error
[h264 @ 0x1cc6ac0] non-existing PPS 0 referenced
[h264 @ 0x1cc6ac0] decode_slice_header error
[h264 @ 0x1cc6ac0] non-existing PPS 0 referenced
[h264 @ 0x1cc6ac0] decode_slice_header error
[h264 @ 0x1cc6ac0] non-existing PPS 0 referenced
[h264 @ 0x1cc6ac0] decode_slice_header error
[h264 @ 0x1cc6ac0] no frame!
[h264 @ 0x1cc6ac0] non-existing PPS referenced
[h264 @ 0x1cc6ac0] non-existing PPS 0 referenced
[h264 @ 0x1cc6ac0] decode_slice_header error
[h264 @ 0x1cc6ac0] non-existing PPS 0 referenced
[h264 @ 0x1cc6ac0] decode_slice_header error
[h264 @ 0x1cc6ac0] non-existing PPS 0 referenced
[h264 @ 0x1cc6ac0] decode_slice_header error
[h264 @ 0x1cc6ac0] non-existing PPS 0 referenced
[h264 @ 0x1cc6ac0] decode_slice_header error
[h264 @ 0x1cc6ac0] no frame!
[h264 @ 0x1cc6ac0] non-existing PPS referenced
[h264 @ 0x1cc6ac0] non-existing PPS 0 referenced
[h264 @ 0x1cc6ac0] decode_slice_header error
[h264 @ 0x1cc6ac0] non-existing PPS 0 referenced
[h264 @ 0x1cc6ac0] decode_slice_header error
[h264 @ 0x1cc6ac0] non-existing PPS 0 referenced
[h264 @ 0x1cc6ac0] decode_slice_header error
[h264 @ 0x1cc6ac0] non-existing PPS 0 referenced
[h264 @ 0x1cc6ac0] decode_slice_header error
[h264 @ 0x1cc6ac0] no frame!
[h264 @ 0x1cc6ac0] non-existing PPS referenced
[h264 @ 0x1cc6ac0] non-existing PPS 0 referenced
[h264 @ 0x1cc6ac0] decode_slice_header error
[h264 @ 0x1cc6ac0] non-existing PPS 0 referenced
[h264 @ 0x1cc6ac0] decode_slice_header error
[h264 @ 0x1cc6ac0] non-existing PPS 0 referenced
[h264 @ 0x1cc6ac0] decode_slice_header error
[h264 @ 0x1cc6ac0] non-existing PPS 0 referenced
[h264 @ 0x1cc6ac0] decode_slice_header error
[h264 @ 0x1cc6ac0] no frame!
[h264 @ 0x1cc6ac0] non-existing PPS referenced
[h264 @ 0x1cc6ac0] non-existing PPS 0 referenced
[h264 @ 0x1cc6ac0] decode_slice_header error
[h264 @ 0x1cc6ac0] non-existing PPS 0 referenced
[h264 @ 0x1cc6ac0] decode_slice_header error
[h264 @ 0x1cc6ac0] non-existing PPS 0 referenced
[h264 @ 0x1cc6ac0] decode_slice_header error
[h264 @ 0x1cc6ac0] non-existing PPS 0 referenced
[h264 @ 0x1cc6ac0] decode_slice_header error
[h264 @ 0x1cc6ac0] no frame!
[h264 @ 0x1cc6ac0] non-existing PPS referenced
[h264 @ 0x1cc6ac0] non-existing PPS 0 referenced
[h264 @ 0x1cc6ac0] decode_slice_header error
[h264 @ 0x1cc6ac0] non-existing PPS 0 referenced
[h264 @ 0x1cc6ac0] decode_slice_header error
[h264 @ 0x1cc6ac0] non-existing PPS 0 referenced
[h264 @ 0x1cc6ac0] decode_slice_header error
[h264 @ 0x1cc6ac0] non-existing PPS 0 referenced
[h264 @ 0x1cc6ac0] decode_slice_header error
[h264 @ 0x1cc6ac0] no frame!
[h264 @ 0x1cc6ac0] non-existing PPS referenced
[h264 @ 0x1cc6ac0] non-existing PPS 0 referenced
[h264 @ 0x1cc6ac0] decode_slice_header error
[h264 @ 0x1cc6ac0] non-existing PPS 0 referenced
[h264 @ 0x1cc6ac0] decode_slice_header error
[h264 @ 0x1cc6ac0] non-existing PPS 0 referenced
[h264 @ 0x1cc6ac0] decode_slice_header error
[h264 @ 0x1cc6ac0] non-existing PPS 0 referenced
[h264 @ 0x1cc6ac0] decode_slice_header error
[h264 @ 0x1cc6ac0] no frame!
[h264 @ 0x1cc6ac0] non-existing PPS referenced
[h264 @ 0x1cc6ac0] non-existing PPS 0 referenced
[h264 @ 0x1cc6ac0] decode_slice_header error
[h264 @ 0x1cc6ac0] non-existing PPS 0 referenced
[h264 @ 0x1cc6ac0] decode_slice_header error
[h264 @ 0x1cc6ac0] non-existing PPS 0 referenced
[h264 @ 0x1cc6ac0] decode_slice_header error
[h264 @ 0x1cc6ac0] non-existing PPS 0 referenced
[h264 @ 0x1cc6ac0] decode_slice_header error
[h264 @ 0x1cc6ac0] no frame!
[h264 @ 0x1cc6ac0] non-existing PPS referenced
[h264 @ 0x1cc6ac0] non-existing PPS 0 referenced
[h264 @ 0x1cc6ac0] decode_slice_header error
[h264 @ 0x1cc6ac0] non-existing PPS 0 referenced
[h264 @ 0x1cc6ac0] decode_slice_header error
[h264 @ 0x1cc6ac0] non-existing PPS 0 referenced
[h264 @ 0x1cc6ac0] decode_slice_header error
[h264 @ 0x1cc6ac0] non-existing PPS 0 referenced
[h264 @ 0x1cc6ac0] decode_slice_header error
[h264 @ 0x1cc6ac0] no frame!
[h264 @ 0x1cc6ac0] non-existing PPS referenced
[h264 @ 0x1cc6ac0] non-existing PPS 0 referenced
[h264 @ 0x1cc6ac0] decode_slice_header error
[h264 @ 0x1cc6ac0] non-existing PPS 0 referenced
[h264 @ 0x1cc6ac0] decode_slice_header error
[h264 @ 0x1cc6ac0] non-existing PPS 0 referenced
[h264 @ 0x1cc6ac0] decode_slice_header error
[h264 @ 0x1cc6ac0] non-existing PPS 0 referenced
[h264 @ 0x1cc6ac0] decode_slice_header error
[h264 @ 0x1cc6ac0] no frame!
[h264 @ 0x1cc6ac0] non-existing PPS referenced
[h264 @ 0x1cc6ac0] non-existing PPS 0 referenced
[h264 @ 0x1cc6ac0] decode_slice_header error
[h264 @ 0x1cc6ac0] non-existing PPS 0 referenced
[h264 @ 0x1cc6ac0] decode_slice_header error
[h264 @ 0x1cc6ac0] non-existing PPS 0 referenced
[h264 @ 0x1cc6ac0] decode_slice_header error
[h264 @ 0x1cc6ac0] non-existing PPS 0 referenced
[h264 @ 0x1cc6ac0] decode_slice_header error
[h264 @ 0x1cc6ac0] no frame!
[h264 @ 0x1cc6ac0] non-existing PPS referenced
[h264 @ 0x1cc6ac0] non-existing PPS 0 referenced
[h264 @ 0x1cc6ac0] decode_slice_header error
[h264 @ 0x1cc6ac0] non-existing PPS 0 referenced
[h264 @ 0x1cc6ac0] decode_slice_header error
[h264 @ 0x1cc6ac0] non-existing PPS 0 referenced
[h264 @ 0x1cc6ac0] decode_slice_header error
[h264 @ 0x1cc6ac0] non-existing PPS 0 referenced
[h264 @ 0x1cc6ac0] decode_slice_header error
[h264 @ 0x1cc6ac0] no frame!
[h264 @ 0x1cc6ac0] non-existing PPS referenced
[h264 @ 0x1cc6ac0] non-existing PPS 0 referenced
[h264 @ 0x1cc6ac0] decode_slice_header error
[h264 @ 0x1cc6ac0] non-existing PPS 0 referenced
[h264 @ 0x1cc6ac0] decode_slice_header error
[h264 @ 0x1cc6ac0] non-existing PPS 0 referenced
[h264 @ 0x1cc6ac0] decode_slice_header error
[h264 @ 0x1cc6ac0] non-existing PPS 0 referenced
[h264 @ 0x1cc6ac0] decode_slice_header error
[h264 @ 0x1cc6ac0] no frame!
[h264 @ 0x1cc6ac0] non-existing PPS referenced
[h264 @ 0x1cc6ac0] non-existing PPS 0 referenced
[h264 @ 0x1cc6ac0] decode_slice_header error
[h264 @ 0x1cc6ac0] non-existing PPS 0 referenced
[h264 @ 0x1cc6ac0] decode_slice_header error
[h264 @ 0x1cc6ac0] non-existing PPS 0 referenced
[h264 @ 0x1cc6ac0] decode_slice_header error
[h264 @ 0x1cc6ac0] non-existing PPS 0 referenced
[h264 @ 0x1cc6ac0] decode_slice_header error
[h264 @ 0x1cc6ac0] no frame!
[h264 @ 0x1cc6ac0] non-existing PPS referenced
[h264 @ 0x1cc6ac0] non-existing PPS 0 referenced
[h264 @ 0x1cc6ac0] decode_slice_header error
[h264 @ 0x1cc6ac0] non-existing PPS 0 referenced
[h264 @ 0x1cc6ac0] decode_slice_header error
[h264 @ 0x1cc6ac0] non-existing PPS 0 referenced
[h264 @ 0x1cc6ac0] decode_slice_header error
[h264 @ 0x1cc6ac0] non-existing PPS 0 referenced
[h264 @ 0x1cc6ac0] decode_slice_header error
[h264 @ 0x1cc6ac0] no frame!
[h264 @ 0x1cc6ac0] non-existing PPS referenced
[h264 @ 0x1cc6ac0] non-existing PPS 0 referenced
[h264 @ 0x1cc6ac0] decode_slice_header error
[h264 @ 0x1cc6ac0] non-existing PPS 0 referenced
[h264 @ 0x1cc6ac0] decode_slice_header error
[h264 @ 0x1cc6ac0] non-existing PPS 0 referenced
[h264 @ 0x1cc6ac0] decode_slice_header error
[h264 @ 0x1cc6ac0] non-existing PPS 0 referenced
[h264 @ 0x1cc6ac0] decode_slice_header error
[h264 @ 0x1cc6ac0] no frame!
[h264 @ 0x1cc6ac0] non-existing PPS referenced
[h264 @ 0x1cc6ac0] non-existing PPS 0 referenced
[h264 @ 0x1cc6ac0] decode_slice_header error
[h264 @ 0x1cc6ac0] non-existing PPS 0 referenced
[h264 @ 0x1cc6ac0] decode_slice_header error
[h264 @ 0x1cc6ac0] non-existing PPS 0 referenced
[h264 @ 0x1cc6ac0] decode_slice_header error
[h264 @ 0x1cc6ac0] non-existing PPS 0 referenced
[h264 @ 0x1cc6ac0] decode_slice_header error
[h264 @ 0x1cc6ac0] no frame!
[h264 @ 0x1cc6ac0] non-existing PPS referenced
[h264 @ 0x1cc6ac0] non-existing PPS 0 referenced
[h264 @ 0x1cc6ac0] decode_slice_header error
[h264 @ 0x1cc6ac0] non-existing PPS 0 referenced
[h264 @ 0x1cc6ac0] decode_slice_header error
[h264 @ 0x1cc6ac0] non-existing PPS 0 referenced
[h264 @ 0x1cc6ac0] decode_slice_header error
[h264 @ 0x1cc6ac0] non-existing PPS 0 referenced
[h264 @ 0x1cc6ac0] decode_slice_header error
[h264 @ 0x1cc6ac0] no frame!
[h264 @ 0x1cc6ac0] non-existing PPS referenced
[h264 @ 0x1cc6ac0] non-existing PPS 0 referenced
[h264 @ 0x1cc6ac0] decode_slice_header error
[h264 @ 0x1cc6ac0] non-existing PPS 0 referenced
[h264 @ 0x1cc6ac0] decode_slice_header error
[h264 @ 0x1cc6ac0] non-existing PPS 0 referenced
[h264 @ 0x1cc6ac0] decode_slice_header error
[h264 @ 0x1cc6ac0] non-existing PPS 0 referenced
[h264 @ 0x1cc6ac0] decode_slice_header error
[h264 @ 0x1cc6ac0] no frame!
[mpegts @ 0x1cb09c0] max_analyze_duration reached
[mpegts @ 0x1cb09c0] Estimating duration from bitrate, this may be inaccurate
Input #0, mpegts, from 'udp://@:5006':
  Duration: N/A, start: 14.840000, bitrate: 224 kb/s
  Program 1
    Metadata:
      service_name    : test-servicename
      service_provider: test-provider
    Stream #0.0[0x200]: Video: h264 (High), yuv420p, 1920x1080 [PAR 1:1 DAR 16:9], 30.45 fps, 25 tbr, 90k tbn, 50 tbc
    Stream #0.1[0x1010](eng): Audio: mp2, 48000 Hz, stereo, s16, 224 kb/s
[mpegts @ 0x1cc7200] muxrate VBR, pcr every 2 pkts, sdt every 200, pat/pmt every 40 pkts
Output #0, mpegts, to 'udp://192.168.1.10:5004?pkt_size=1316?ttl=8':
  Metadata:
    service_name    : test
    service_provider: test2
    encoder         : Lavf53.21.1
    Stream #0.0: Video: libx264, yuv420p, 1920x1080 [PAR 1:1 DAR 16:9], q=2-31, 90k tbn, 25 tbc
    Stream #0.1(eng): Audio: mp2, 48000 Hz, stereo, 224 kb/s
Stream mapping:
  Stream #0.0 -> #0.0
  Stream #0.1 -> #0.1
Press ctrl-c to stop encoding
^Cframe=  431 fps= 33 q=-1.0 Lsize=    6833kB time=18.20 bitrate=3075.7kbits/s    
video:5779kB audio:499kB global headers:0kB muxing overhead 8.831937%
Received signal 2: terminating

Reply | Threaded
Open this post in threaded view
|

Re: ffmpeg profesional decoder compatibility mpegts

Carl Eugen Hoyos
In reply to this post by AlexandreL
AlexandreL <licinio.alexandre <at> gmail.com> writes:

> Sorry for avconv but also with ffmpeg it's not working

Complete, uncut console output missing.

Carl Eugen

_______________________________________________
ffmpeg-user mailing list
[hidden email]
http://ffmpeg.org/mailman/listinfo/ffmpeg-user
Reply | Threaded
Open this post in threaded view
|

Re: ffmpeg profesional decoder compatibility mpegts

anshul
In reply to this post by AlexandreL
On 11/20/2014 07:41 PM, AlexandreL wrote:

> Sorry, i'm a new user
> i post my ffmpeg message during transcoding.
>
>
> *c-100-2@c1002-ProLiant-DL360-G6*:~$ ffmpeg -i udp://@:5006  -vcodec copy
> -acodec copy -streamid 0:512 -streamid 1:4112 -metadata:s:a:0 language=eng
> -metadata service_name=test  -metadata service_provider=test2
> -mpegts_service_id 0x1  -f mpegts
> udp://192.168.1.10:5004?pkt_size=1316?ttl=8
> ffmpeg version 0.8.16-4:0.8.16-0ubuntu0.12.04.1, Copyright (c) 2000-2014 the
Its Historical version :)
 

> Libav developers
>   built on Sep 16 2014 18:33:49 with gcc 4.6.3
> The ffmpeg program is only provided for script compatibility and will be
> removed
> in a future release. It has been deprecated in the Libav project to allow
> for
> incompatible command line syntax improvements in its replacement called
> avconv
> (see Changelog for details). Please use avconv instead.
> [h264 @ 0x1cc6ac0] non-existing PPS referenced
> [h264 @ 0x1cc6ac0] non-existing PPS 0 referenced
> [h264 @ 0x1cc6ac0] decode_slice_header error
> [h264 @ 0x1cc6ac0] non-existing PPS 0 referenced
> [h264 @ 0x1cc6ac0] decode_slice_header error
> [h264 @ 0x1cc6ac0] non-existing PPS 0 referenced
> [h264 @ 0x1cc6ac0] decode_slice_header error
> [h264 @ 0x1cc6ac0] non-existing PPS 0 referenced
> [h264 @ 0x1cc6ac0] decode_slice_header error
> [h264 @ 0x1cc6ac0] no frame!
> [h264 @ 0x1cc6ac0] non-existing PPS referenced
> [h264 @ 0x1cc6ac0] non-existing PPS 0 referenced
> [h264 @ 0x1cc6ac0] decode_slice_header error
> [h264 @ 0x1cc6ac0] non-existing PPS 0 referenced
> [h264 @ 0x1cc6ac0] decode_slice_header error
> [h264 @ 0x1cc6ac0] non-existing PPS 0 referenced
> [h264 @ 0x1cc6ac0] decode_slice_header error
> [h264 @ 0x1cc6ac0] non-existing PPS 0 referenced
> [h264 @ 0x1cc6ac0] decode_slice_header error
> [h264 @ 0x1cc6ac0] no frame!
> [h264 @ 0x1cc6ac0] non-existing PPS referenced
> [h264 @ 0x1cc6ac0] non-existing PPS 0 referenced
> [h264 @ 0x1cc6ac0] decode_slice_header error
> [h264 @ 0x1cc6ac0] non-existing PPS 0 referenced
> [h264 @ 0x1cc6ac0] decode_slice_header error
> [h264 @ 0x1cc6ac0] non-existing PPS 0 referenced
> [h264 @ 0x1cc6ac0] decode_slice_header error
> [h264 @ 0x1cc6ac0] non-existing PPS 0 referenced
> [h264 @ 0x1cc6ac0] decode_slice_header error
> [h264 @ 0x1cc6ac0] no frame!
> [h264 @ 0x1cc6ac0] non-existing PPS referenced
> [h264 @ 0x1cc6ac0] non-existing PPS 0 referenced
> [h264 @ 0x1cc6ac0] decode_slice_header error
> [h264 @ 0x1cc6ac0] non-existing PPS 0 referenced
> [h264 @ 0x1cc6ac0] decode_slice_header error
> [h264 @ 0x1cc6ac0] non-existing PPS 0 referenced
> [h264 @ 0x1cc6ac0] decode_slice_header error
> [h264 @ 0x1cc6ac0] non-existing PPS 0 referenced
> [h264 @ 0x1cc6ac0] decode_slice_header error
> [h264 @ 0x1cc6ac0] no frame!
> [h264 @ 0x1cc6ac0] non-existing PPS referenced
> [h264 @ 0x1cc6ac0] non-existing PPS 0 referenced
> [h264 @ 0x1cc6ac0] decode_slice_header error
> [h264 @ 0x1cc6ac0] non-existing PPS 0 referenced
> [h264 @ 0x1cc6ac0] decode_slice_header error
> [h264 @ 0x1cc6ac0] non-existing PPS 0 referenced
> [h264 @ 0x1cc6ac0] decode_slice_header error
> [h264 @ 0x1cc6ac0] non-existing PPS 0 referenced
> [h264 @ 0x1cc6ac0] decode_slice_header error
> [h264 @ 0x1cc6ac0] no frame!
> [h264 @ 0x1cc6ac0] non-existing PPS referenced
> [h264 @ 0x1cc6ac0] non-existing PPS 0 referenced
> [h264 @ 0x1cc6ac0] decode_slice_header error
> [h264 @ 0x1cc6ac0] non-existing PPS 0 referenced
> [h264 @ 0x1cc6ac0] decode_slice_header error
> [h264 @ 0x1cc6ac0] non-existing PPS 0 referenced
> [h264 @ 0x1cc6ac0] decode_slice_header error
> [h264 @ 0x1cc6ac0] non-existing PPS 0 referenced
> [h264 @ 0x1cc6ac0] decode_slice_header error
> [h264 @ 0x1cc6ac0] no frame!
> [h264 @ 0x1cc6ac0] non-existing PPS referenced
> [h264 @ 0x1cc6ac0] non-existing PPS 0 referenced
> [h264 @ 0x1cc6ac0] decode_slice_header error
> [h264 @ 0x1cc6ac0] non-existing PPS 0 referenced
> [h264 @ 0x1cc6ac0] decode_slice_header error
> [h264 @ 0x1cc6ac0] non-existing PPS 0 referenced
> [h264 @ 0x1cc6ac0] decode_slice_header error
> [h264 @ 0x1cc6ac0] non-existing PPS 0 referenced
> [h264 @ 0x1cc6ac0] decode_slice_header error
> [h264 @ 0x1cc6ac0] no frame!
> [h264 @ 0x1cc6ac0] non-existing PPS referenced
> [h264 @ 0x1cc6ac0] non-existing PPS 0 referenced
> [h264 @ 0x1cc6ac0] decode_slice_header error
> [h264 @ 0x1cc6ac0] non-existing PPS 0 referenced
> [h264 @ 0x1cc6ac0] decode_slice_header error
> [h264 @ 0x1cc6ac0] non-existing PPS 0 referenced
> [h264 @ 0x1cc6ac0] decode_slice_header error
> [h264 @ 0x1cc6ac0] non-existing PPS 0 referenced
> [h264 @ 0x1cc6ac0] decode_slice_header error
> [h264 @ 0x1cc6ac0] no frame!
> [h264 @ 0x1cc6ac0] non-existing PPS referenced
> [h264 @ 0x1cc6ac0] non-existing PPS 0 referenced
> [h264 @ 0x1cc6ac0] decode_slice_header error
> [h264 @ 0x1cc6ac0] non-existing PPS 0 referenced
> [h264 @ 0x1cc6ac0] decode_slice_header error
> [h264 @ 0x1cc6ac0] non-existing PPS 0 referenced
> [h264 @ 0x1cc6ac0] decode_slice_header error
> [h264 @ 0x1cc6ac0] non-existing PPS 0 referenced
> [h264 @ 0x1cc6ac0] decode_slice_header error
> [h264 @ 0x1cc6ac0] no frame!
> [h264 @ 0x1cc6ac0] non-existing PPS referenced
> [h264 @ 0x1cc6ac0] non-existing PPS 0 referenced
> [h264 @ 0x1cc6ac0] decode_slice_header error
> [h264 @ 0x1cc6ac0] non-existing PPS 0 referenced
> [h264 @ 0x1cc6ac0] decode_slice_header error
> [h264 @ 0x1cc6ac0] non-existing PPS 0 referenced
> [h264 @ 0x1cc6ac0] decode_slice_header error
> [h264 @ 0x1cc6ac0] non-existing PPS 0 referenced
> [h264 @ 0x1cc6ac0] decode_slice_header error
> [h264 @ 0x1cc6ac0] no frame!
> [h264 @ 0x1cc6ac0] non-existing PPS referenced
> [h264 @ 0x1cc6ac0] non-existing PPS 0 referenced
> [h264 @ 0x1cc6ac0] decode_slice_header error
> [h264 @ 0x1cc6ac0] non-existing PPS 0 referenced
> [h264 @ 0x1cc6ac0] decode_slice_header error
> [h264 @ 0x1cc6ac0] non-existing PPS 0 referenced
> [h264 @ 0x1cc6ac0] decode_slice_header error
> [h264 @ 0x1cc6ac0] non-existing PPS 0 referenced
> [h264 @ 0x1cc6ac0] decode_slice_header error
> [h264 @ 0x1cc6ac0] no frame!
> [h264 @ 0x1cc6ac0] non-existing PPS referenced
> [h264 @ 0x1cc6ac0] non-existing PPS 0 referenced
> [h264 @ 0x1cc6ac0] decode_slice_header error
> [h264 @ 0x1cc6ac0] non-existing PPS 0 referenced
> [h264 @ 0x1cc6ac0] decode_slice_header error
> [h264 @ 0x1cc6ac0] non-existing PPS 0 referenced
> [h264 @ 0x1cc6ac0] decode_slice_header error
> [h264 @ 0x1cc6ac0] non-existing PPS 0 referenced
> [h264 @ 0x1cc6ac0] decode_slice_header error
> [h264 @ 0x1cc6ac0] no frame!
> [h264 @ 0x1cc6ac0] non-existing PPS referenced
> [h264 @ 0x1cc6ac0] non-existing PPS 0 referenced
> [h264 @ 0x1cc6ac0] decode_slice_header error
> [h264 @ 0x1cc6ac0] non-existing PPS 0 referenced
> [h264 @ 0x1cc6ac0] decode_slice_header error
> [h264 @ 0x1cc6ac0] non-existing PPS 0 referenced
> [h264 @ 0x1cc6ac0] decode_slice_header error
> [h264 @ 0x1cc6ac0] non-existing PPS 0 referenced
> [h264 @ 0x1cc6ac0] decode_slice_header error
> [h264 @ 0x1cc6ac0] no frame!
> [h264 @ 0x1cc6ac0] non-existing PPS referenced
> [h264 @ 0x1cc6ac0] non-existing PPS 0 referenced
> [h264 @ 0x1cc6ac0] decode_slice_header error
> [h264 @ 0x1cc6ac0] non-existing PPS 0 referenced
> [h264 @ 0x1cc6ac0] decode_slice_header error
> [h264 @ 0x1cc6ac0] non-existing PPS 0 referenced
> [h264 @ 0x1cc6ac0] decode_slice_header error
> [h264 @ 0x1cc6ac0] non-existing PPS 0 referenced
> [h264 @ 0x1cc6ac0] decode_slice_header error
> [h264 @ 0x1cc6ac0] no frame!
> [h264 @ 0x1cc6ac0] non-existing PPS referenced
> [h264 @ 0x1cc6ac0] non-existing PPS 0 referenced
> [h264 @ 0x1cc6ac0] decode_slice_header error
> [h264 @ 0x1cc6ac0] non-existing PPS 0 referenced
> [h264 @ 0x1cc6ac0] decode_slice_header error
> [h264 @ 0x1cc6ac0] non-existing PPS 0 referenced
> [h264 @ 0x1cc6ac0] decode_slice_header error
> [h264 @ 0x1cc6ac0] non-existing PPS 0 referenced
> [h264 @ 0x1cc6ac0] decode_slice_header error
> [h264 @ 0x1cc6ac0] no frame!
> [h264 @ 0x1cc6ac0] non-existing PPS referenced
> [h264 @ 0x1cc6ac0] non-existing PPS 0 referenced
> [h264 @ 0x1cc6ac0] decode_slice_header error
> [h264 @ 0x1cc6ac0] non-existing PPS 0 referenced
> [h264 @ 0x1cc6ac0] decode_slice_header error
> [h264 @ 0x1cc6ac0] non-existing PPS 0 referenced
> [h264 @ 0x1cc6ac0] decode_slice_header error
> [h264 @ 0x1cc6ac0] non-existing PPS 0 referenced
> [h264 @ 0x1cc6ac0] decode_slice_header error
> [h264 @ 0x1cc6ac0] no frame!
> [h264 @ 0x1cc6ac0] non-existing PPS referenced
> [h264 @ 0x1cc6ac0] non-existing PPS 0 referenced
> [h264 @ 0x1cc6ac0] decode_slice_header error
> [h264 @ 0x1cc6ac0] non-existing PPS 0 referenced
> [h264 @ 0x1cc6ac0] decode_slice_header error
> [h264 @ 0x1cc6ac0] non-existing PPS 0 referenced
> [h264 @ 0x1cc6ac0] decode_slice_header error
> [h264 @ 0x1cc6ac0] non-existing PPS 0 referenced
> [h264 @ 0x1cc6ac0] decode_slice_header error
> [h264 @ 0x1cc6ac0] no frame!
> [h264 @ 0x1cc6ac0] non-existing PPS referenced
> [h264 @ 0x1cc6ac0] non-existing PPS 0 referenced
> [h264 @ 0x1cc6ac0] decode_slice_header error
> [h264 @ 0x1cc6ac0] non-existing PPS 0 referenced
> [h264 @ 0x1cc6ac0] decode_slice_header error
> [h264 @ 0x1cc6ac0] non-existing PPS 0 referenced
> [h264 @ 0x1cc6ac0] decode_slice_header error
> [h264 @ 0x1cc6ac0] non-existing PPS 0 referenced
> [h264 @ 0x1cc6ac0] decode_slice_header error
> [h264 @ 0x1cc6ac0] no frame!
> [h264 @ 0x1cc6ac0] non-existing PPS referenced
> [h264 @ 0x1cc6ac0] non-existing PPS 0 referenced
> [h264 @ 0x1cc6ac0] decode_slice_header error
> [h264 @ 0x1cc6ac0] non-existing PPS 0 referenced
> [h264 @ 0x1cc6ac0] decode_slice_header error
> [h264 @ 0x1cc6ac0] non-existing PPS 0 referenced
> [h264 @ 0x1cc6ac0] decode_slice_header error
> [h264 @ 0x1cc6ac0] non-existing PPS 0 referenced
> [h264 @ 0x1cc6ac0] decode_slice_header error
> [h264 @ 0x1cc6ac0] no frame!
> [h264 @ 0x1cc6ac0] non-existing PPS referenced
> [h264 @ 0x1cc6ac0] non-existing PPS 0 referenced
> [h264 @ 0x1cc6ac0] decode_slice_header error
> [h264 @ 0x1cc6ac0] non-existing PPS 0 referenced
> [h264 @ 0x1cc6ac0] decode_slice_header error
> [h264 @ 0x1cc6ac0] non-existing PPS 0 referenced
> [h264 @ 0x1cc6ac0] decode_slice_header error
> [h264 @ 0x1cc6ac0] non-existing PPS 0 referenced
> [h264 @ 0x1cc6ac0] decode_slice_header error
> [h264 @ 0x1cc6ac0] no frame!
> [h264 @ 0x1cc6ac0] non-existing PPS referenced
> [h264 @ 0x1cc6ac0] non-existing PPS 0 referenced
> [h264 @ 0x1cc6ac0] decode_slice_header error
> [h264 @ 0x1cc6ac0] non-existing PPS 0 referenced
> [h264 @ 0x1cc6ac0] decode_slice_header error
> [h264 @ 0x1cc6ac0] non-existing PPS 0 referenced
> [h264 @ 0x1cc6ac0] decode_slice_header error
> [h264 @ 0x1cc6ac0] non-existing PPS 0 referenced
> [h264 @ 0x1cc6ac0] decode_slice_header error
> [h264 @ 0x1cc6ac0] no frame!
> [h264 @ 0x1cc6ac0] non-existing PPS referenced
> [h264 @ 0x1cc6ac0] non-existing PPS 0 referenced
> [h264 @ 0x1cc6ac0] decode_slice_header error
> [h264 @ 0x1cc6ac0] non-existing PPS 0 referenced
> [h264 @ 0x1cc6ac0] decode_slice_header error
> [h264 @ 0x1cc6ac0] non-existing PPS 0 referenced
> [h264 @ 0x1cc6ac0] decode_slice_header error
> [h264 @ 0x1cc6ac0] non-existing PPS 0 referenced
> [h264 @ 0x1cc6ac0] decode_slice_header error
> [h264 @ 0x1cc6ac0] no frame!
> [h264 @ 0x1cc6ac0] non-existing PPS referenced
> [h264 @ 0x1cc6ac0] non-existing PPS 0 referenced
> [h264 @ 0x1cc6ac0] decode_slice_header error
> [h264 @ 0x1cc6ac0] non-existing PPS 0 referenced
> [h264 @ 0x1cc6ac0] decode_slice_header error
> [h264 @ 0x1cc6ac0] non-existing PPS 0 referenced
> [h264 @ 0x1cc6ac0] decode_slice_header error
> [h264 @ 0x1cc6ac0] non-existing PPS 0 referenced
> [h264 @ 0x1cc6ac0] decode_slice_header error
> [h264 @ 0x1cc6ac0] no frame!
> [mpegts @ 0x1cb09c0] max_analyze_duration reached
> [mpegts @ 0x1cb09c0] Estimating duration from bitrate, this may be
> inaccurate
> Input #0, mpegts, from 'udp://@:5006':
>   Duration: N/A, start: 14.840000, bitrate: 224 kb/s
>   Program 1
>     Metadata:
>       service_name    : test-servicename
>       service_provider: test-provider
>     Stream #0.0[0x200]: Video: h264 (High), yuv420p, 1920x1080 [PAR 1:1 DAR
> 16:9], 30.45 fps, 25 tbr, 90k tbn, 50 tbc
>     Stream #0.1[0x1010](eng): Audio: mp2, 48000 Hz, stereo, s16, 224 kb/s
> [mpegts @ 0x1cc7200] muxrate VBR, pcr every 2 pkts, sdt every 200, pat/pmt
> every 40 pkts
> Output #0, mpegts, to 'udp://192.168.1.10:5004?pkt_size=1316?ttl=8':
>   Metadata:
>     service_name    : test
>     service_provider: test2
>     encoder         : Lavf53.21.1
>     Stream #0.0: Video: libx264, yuv420p, 1920x1080 [PAR 1:1 DAR 16:9],
> q=2-31, 90k tbn, 25 tbc
>     Stream #0.1(eng): Audio: mp2, 48000 Hz, stereo, 224 kb/s
> Stream mapping:
>   Stream #0.0 -> #0.0
>   Stream #0.1 -> #0.1
> Press ctrl-c to stop encoding
> ^Cframe=  431 fps= 33 q=-1.0 Lsize=    6833kB time=18.20
> bitrate=3075.7kbits/s    
> video:5779kB audio:499kB global headers:0kB muxing overhead 8.831937%
> Received signal 2: terminating
>
>
>
>
>
> --
> View this message in context: http://ffmpeg-users.933282.n4.nabble.com/ffmpeg-profesional-decoder-compatibility-mpegts-tp4668216p4668220.html
> Sent from the FFmpeg-users mailing list archive at Nabble.com.
> _______________________________________________
> ffmpeg-user mailing list
> [hidden email]
> http://ffmpeg.org/mailman/listinfo/ffmpeg-user

_______________________________________________
ffmpeg-user mailing list
[hidden email]
http://ffmpeg.org/mailman/listinfo/ffmpeg-user
Reply | Threaded
Open this post in threaded view
|

Re: ffmpeg profesional decoder compatibility mpegts

AlexandreL
Sorry all,
Where can i find the "Complete, uncut console output" ?

Thanks,
Reply | Threaded
Open this post in threaded view
|

Re: ffmpeg profesional decoder compatibility mpegts

Moritz Barsnick
In reply to this post by AlexandreL
On Thu, Nov 20, 2014 at 06:05:44 -0800, AlexandreL wrote:
> ffmpeg -i udp://@:5006  -vcodec copy -acodec copy -streamid 0:512 -streamid
> 1:4112 -metadata:s:a:0 language=eng -metadata service_name=test1  -metadata
> service_provider=test2 -mpegts_service_id 0x1  -f mpegts
> udp://192.168.1.54:5004?pkt_size=1316?ttl=8

As Anshul said, please also provide the full, uncut output of the
command in addition to the commandline.

Moritz
_______________________________________________
ffmpeg-user mailing list
[hidden email]
http://ffmpeg.org/mailman/listinfo/ffmpeg-user
Reply | Threaded
Open this post in threaded view
|

Re: ffmpeg profesional decoder compatibility mpegts

Carl Eugen Hoyos
In reply to this post by AlexandreL
AlexandreL <licinio.alexandre <at> gmail.com> writes:

> ffmpeg version 0.8.16-4:0.8.16-0ubuntu0.12.04.1

This looks like an intentionally broken version of
FFmpeg that contains several hundred known bugs not
present in FFmpeg, some of them security relevant,
please understand that we cannot support it here.
Please see http://ffmpeg.org/download.html for
supported versions, please test *current git head*
before reporting problems here.

See http://blog.pkh.me/p/13-the-ffmpeg-libav-situation.html 
for more information about the fraud that hit you.

Carl Eugen

_______________________________________________
ffmpeg-user mailing list
[hidden email]
http://ffmpeg.org/mailman/listinfo/ffmpeg-user
Reply | Threaded
Open this post in threaded view
|

Re: ffmpeg profesional decoder compatibility mpegts

Carl Eugen Hoyos
In reply to this post by anshul
Anshul <anshul.ffmpeg <at> gmail.com> writes:

> > ffmpeg version 0.8.16-4:0.8.16-0ubuntu0.12.04.1
>
> Its Historical version :)

No, this is *not* an old FFmpeg version, such a
version has never existed.

Carl Eugen

_______________________________________________
ffmpeg-user mailing list
[hidden email]
http://ffmpeg.org/mailman/listinfo/ffmpeg-user
Reply | Threaded
Open this post in threaded view
|

Re: ffmpeg profesional decoder compatibility mpegts

anshul
In reply to this post by AlexandreL
On 11/20/2014 07:48 PM, AlexandreL wrote:
> Sorry all,
> Where can i find the "Complete, uncut console output" ?
>
> Thanks,
>

Though I am not sure, from long time I was not here, Most of the times
things printed on console is known as Console Output of ffmpeg. Use git
version and your console output would look like as console output.

you can download snapshot from here
https://www.ffmpeg.org/releases/ffmpeg-snapshot.tar.bz2

As u are vey new user here, I would suggest
scroll through following links.
https://www.ffmpeg.org/download.html
https://trac.ffmpeg.org/wiki/CompilationGuide/Ubuntu.


If your problem still persist, then come again.

-Anshul


_______________________________________________
ffmpeg-user mailing list
[hidden email]
http://ffmpeg.org/mailman/listinfo/ffmpeg-user
Reply | Threaded
Open this post in threaded view
|

Re: ffmpeg profesional decoder compatibility mpegts

AlexandreL
In reply to this post by Carl Eugen Hoyos
so sorry i am
i just updated to the last version
it's not working again

here the command

c-100-2@c1002-ProLiant-DL360-G6:~/Downloads/ffmpeg-git-20141120-64bit-static$ ./ffmpeg -i udp://@:5006  -vcodec copy -acodec copy -streamid 0:512 -streamid 1:4112 -metadata:s:a:0 language=eng -metadata service_name=test  -metadata service_provider=test2 -mpegts_service_id 0x1  -f mpegts udp://193.252.151.106:5004?pkt_size=1316?ttl=128
ffmpeg version N-42326-gc661601-   http://johnvansickle.com/ffmpeg/    Copyright (c) 2000-2014 the FFmpeg developers
  built on Nov 20 2014 01:23:11 with gcc 4.8 (Debian 4.8.3-13)
  configuration: --enable-gpl --enable-version3 --disable-shared --disable-debug --enable-runtime-cpudetect --enable-libmp3lame --enable-libx264 --enable-libx265 --enable-libwebp --enable-libspeex --enable-libvorbis --enable-libvpx --enable-libfreetype --enable-fontconfig --enable-libxvid --enable-libopencore-amrnb --enable-libopencore-amrwb --enable-libtheora --enable-libvo-aacenc --enable-libvo-amrwbenc --enable-gray --enable-libopenjpeg --enable-libopus --disable-ffserver --enable-libass --enable-gnutls --cc=gcc-4.8
  libavutil      54. 14.100 / 54. 14.100
  libavcodec     56. 12.101 / 56. 12.101
  libavformat    56. 14.100 / 56. 14.100
  libavdevice    56.  3.100 / 56.  3.100
  libavfilter     5.  2.103 /  5.  2.103
  libswscale      3.  1.101 /  3.  1.101
  libswresample   1.  1.100 /  1.  1.100
  libpostproc    53.  3.100 / 53.  3.100
[h264 @ 0x2d10c00] non-existing PPS 0 referenced
    Last message repeated 1 times
[h264 @ 0x2d10c00] decode_slice_header error
[h264 @ 0x2d10c00] non-existing PPS 0 referenced
[h264 @ 0x2d10c00] decode_slice_header error
[h264 @ 0x2d10c00] non-existing PPS 0 referenced
[h264 @ 0x2d10c00] decode_slice_header error
[h264 @ 0x2d10c00] non-existing PPS 0 referenced
[h264 @ 0x2d10c00] decode_slice_header error
[h264 @ 0x2d10c00] no frame!
[h264 @ 0x2d10c00] non-existing PPS 0 referenced
    Last message repeated 1 times
[h264 @ 0x2d10c00] decode_slice_header error
[h264 @ 0x2d10c00] non-existing PPS 0 referenced
[h264 @ 0x2d10c00] decode_slice_header error
[h264 @ 0x2d10c00] non-existing PPS 0 referenced
[h264 @ 0x2d10c00] decode_slice_header error
[h264 @ 0x2d10c00] non-existing PPS 0 referenced
[h264 @ 0x2d10c00] decode_slice_header error
[h264 @ 0x2d10c00] no frame!
[h264 @ 0x2d10c00] non-existing PPS 0 referenced
    Last message repeated 1 times
[h264 @ 0x2d10c00] decode_slice_header error
[h264 @ 0x2d10c00] non-existing PPS 0 referenced
[h264 @ 0x2d10c00] decode_slice_header error
[h264 @ 0x2d10c00] non-existing PPS 0 referenced
[h264 @ 0x2d10c00] decode_slice_header error
[h264 @ 0x2d10c00] non-existing PPS 0 referenced
[h264 @ 0x2d10c00] decode_slice_header error
[h264 @ 0x2d10c00] no frame!
[h264 @ 0x2d10c00] non-existing PPS 0 referenced
    Last message repeated 1 times
[h264 @ 0x2d10c00] decode_slice_header error
[h264 @ 0x2d10c00] non-existing PPS 0 referenced
[h264 @ 0x2d10c00] decode_slice_header error
[h264 @ 0x2d10c00] non-existing PPS 0 referenced
[h264 @ 0x2d10c00] decode_slice_header error
[h264 @ 0x2d10c00] non-existing PPS 0 referenced
[h264 @ 0x2d10c00] decode_slice_header error
[h264 @ 0x2d10c00] no frame!
[h264 @ 0x2d10c00] non-existing PPS 0 referenced
    Last message repeated 1 times
[h264 @ 0x2d10c00] decode_slice_header error
[h264 @ 0x2d10c00] non-existing PPS 0 referenced
[h264 @ 0x2d10c00] decode_slice_header error
[h264 @ 0x2d10c00] non-existing PPS 0 referenced
[h264 @ 0x2d10c00] decode_slice_header error
[h264 @ 0x2d10c00] non-existing PPS 0 referenced
[h264 @ 0x2d10c00] decode_slice_header error
[h264 @ 0x2d10c00] no frame!
[h264 @ 0x2d10c00] non-existing PPS 0 referenced
    Last message repeated 1 times
[h264 @ 0x2d10c00] decode_slice_header error
[h264 @ 0x2d10c00] non-existing PPS 0 referenced
[h264 @ 0x2d10c00] decode_slice_header error
[h264 @ 0x2d10c00] non-existing PPS 0 referenced
[h264 @ 0x2d10c00] decode_slice_header error
[h264 @ 0x2d10c00] non-existing PPS 0 referenced
[h264 @ 0x2d10c00] decode_slice_header error
[h264 @ 0x2d10c00] no frame!
[h264 @ 0x2d10c00] non-existing PPS 0 referenced
    Last message repeated 1 times
[h264 @ 0x2d10c00] decode_slice_header error
[h264 @ 0x2d10c00] non-existing PPS 0 referenced
[h264 @ 0x2d10c00] decode_slice_header error
[h264 @ 0x2d10c00] non-existing PPS 0 referenced
[h264 @ 0x2d10c00] decode_slice_header error
[h264 @ 0x2d10c00] non-existing PPS 0 referenced
[h264 @ 0x2d10c00] decode_slice_header error
[h264 @ 0x2d10c00] no frame!
[h264 @ 0x2d10c00] non-existing PPS 0 referenced
    Last message repeated 1 times
[h264 @ 0x2d10c00] decode_slice_header error
[h264 @ 0x2d10c00] non-existing PPS 0 referenced
[h264 @ 0x2d10c00] decode_slice_header error
[h264 @ 0x2d10c00] non-existing PPS 0 referenced
[h264 @ 0x2d10c00] decode_slice_header error
[h264 @ 0x2d10c00] non-existing PPS 0 referenced
[h264 @ 0x2d10c00] decode_slice_header error
[h264 @ 0x2d10c00] no frame!
Input #0, mpegts, from 'udp://@:5006':
  Duration: N/A, start: 1934.888000, bitrate: 224 kb/s
  Program 1
    Metadata:
      service_name    : test-servicename
      service_provider: test-provider
    Stream #0:0[0x200]: Video: h264 (High) ([27][0][0][0] / 0x001B), yuv420p(tv, bt709), 1920x1080 [SAR 1:1 DAR 16:9], 25 fps, 25 tbr, 90k tbn, 50 tbc
    Stream #0:1[0x1010](eng): Audio: mp2 ([3][0][0][0] / 0x0003), 48000 Hz, stereo, s16p, 224 kb/s
Output #0, mpegts, to 'udp://193.252.151.106:5004?pkt_size=1316?ttl=128':
  Metadata:
    service_name    : test
    service_provider: test2
    encoder         : Lavf56.14.100
    Stream #0:0: Video: h264 ([27][0][0][0] / 0x001B), yuv420p, 1920x1080 [SAR 1:1 DAR 16:9], q=2-31, 25 fps, 90k tbn, 25 tbc
    Stream #0:1(eng): Audio: mp2 ([3][0][0][0] / 0x0003), 48000 Hz, stereo, 224 kb/s
Stream mapping:
  Stream #0:0 -> #0:0 (copy)
  Stream #0:1 -> #0:1 (copy)
Press [q] to stop, [?] for help
frame=  130 fps=0.0 q=-1.0 size=    2646kB time=00:00:05.61 bitrate=3859.4kbits/frame=  143 fps=142 q=-1.0 size=    2907kB time=00:00:06.09 bitrate=3906.6kbits/frame=  156 fps=103 q=-1.0 size=    3173kB time=00:00:06.60 bitrate=3938.9kbits/frame=  168 fps= 84 q=-1.0 size=    3414kB time=00:00:07.10 bitrate=3936.8kbits/frame=  181 fps= 72 q=-1.0 size=    3676kB time=00:00:07.60 bitrate=3957.9kbits/frame=  193 fps= 64 q=-1.0 size=    3919kB time=00:00:08.13 bitrate=3945.8kbits/frame=  206 fps= 58 q=-1.0 size=    4180kB time=00:00:08.61 bitrate=3974.5kbits/frame=  219 fps= 54 q=-1.0 size=    4443kB time=00:00:09.12 bitrate=3990.7kbits/frame=  231 fps= 51 q=-1.0 size=    4684kB time=00:00:09.62 bitrate=3987.4kbits/frame=  244 fps= 48 q=-1.0 size=    4937kB time=00:00:10.12 bitrate=3993.0kbits/frame=  256 fps= 46 q=-1.0 size=    5182kB time=00:00:10.65 bitrate=3983.7kbits/frame=  269 fps= 44 q=-1.0 size=    5447kB time=00:00:11.13 bitrate=4006.9kbits/frame=  282 fps= 43 q=-1.0 size=    5711kB time=00:00:11.64 bitrate=4019.5kbits/frame=  294 fps= 42 q=-1.0 size=    5952kB time=00:00:12.14 bitrate=4015.4kbits/frame=  307 fps= 41 q=-1.0 size=    6218kB time=00:00:12.64 bitrate=4027.1kbits/frame=  319 fps= 40 q=-1.0 size=    6459kB time=00:00:13.17 bitrate=4015.6kbits/frame=  332 fps= 39 q=-1.0 size=    6721kB time=00:00:13.65 bitrate=4031.8kbits/frame=  345 fps= 38 q=-1.0 size=    6980kB time=00:00:14.16 bitrate=4037.9kbits/frame=  357 fps= 37 q=-1.0 size=    7221kB time=00:00:14.66 bitrate=4034.2kbits/frame=  370 fps= 37 q=-1.0 size=    7485kB time=00:00:15.16 bitrate=4042.6kbits/frame=  382 fps= 36 q=-1.0 size=    7727kB time=00:00:15.69 bitrate=4032.6kbits/frame=  395 fps= 36 q=-1.0 size=    7988kB time=00:00:16.17 bitrate=4045.3kbits/frame=  408 fps= 35 q=-1.0 size=    8240kB time=00:00:16.68 bitrate=4047.0kbits/frame=  420 fps= 35 q=-1.0 size=    8478kB time=00:00:17.18 bitrate=4041.8kbits/frame=  433 fps= 34 q=-1.0 size=    8741kB time=00:00:17.68 bitrate=4048.4kbits/frame=  445 fps= 34 q=-1.0 size=    8983kB time=00:00:18.21 bitrate=4039.8kbits/frame=  458 fps= 34 q=-1.0 size=    9250kB time=00:00:18.69 bitrate=4052.9kbits/frame=  471 fps= 33 q=-1.0 size=    9512kB time=00:00:19.20 bitrate=4058.4kbits/frame=  483 fps= 33 q=-1.0 size=    9755kB time=00:00:19.70 bitrate=4055.9kbits/frame=  496 fps= 33 q=-1.0 size=   10011kB time=00:00:20.20 bitrate=4058.4kbits/frame=  508 fps= 33 q=-1.0 size=   10251kB time=00:00:20.73 bitrate=4049.8kbits/frame=  521 fps= 32 q=-1.0 size=   10512kB time=00:00:21.21 bitrate=4058.8kbits/frame=  526 fps= 32 q=-1.0 Lsize=   10616kB time=00:00:21.43 bitrate=4057.6kbits/s    
video:9187kB audio:586kB subtitle:0kB other streams:0kB global headers:0kB muxing overhead: 8.621732%
Received signal 2: terminating.
Reply | Threaded
Open this post in threaded view
|

Re: ffmpeg profesional decoder compatibility mpegts

anshul
On 11/20/2014 08:13 PM, AlexandreL wrote:

> so sorry i am
> i just updated to the last version
> it's not working again
>
> here the command
>
> c-100-2@c1002-ProLiant-DL360-G6:~/Downloads/ffmpeg-git-20141120-64bit-static$
> ./ffmpeg -i udp://@:5006  -vcodec copy -acodec copy -streamid 0:512
> -streamid 1:4112 -metadata:s:a:0 language=eng -metadata service_name=test
> -metadata service_provider=test2 -mpegts_service_id 0x1  -f mpegts
> udp://193.252.151.106:5004?pkt_size=1316?ttl=128
> ffmpeg version N-42326-gc661601-   http://johnvansickle.com/ffmpeg/   
> Copyright (c) 2000-2014 the FFmpeg developers
>   built on Nov 20 2014 01:23:11 with gcc 4.8 (Debian 4.8.3-13)
>   configuration: --enable-gpl --enable-version3 --disable-shared
> --disable-debug --enable-runtime-cpudetect --enable-libmp3lame
> --enable-libx264 --enable-libx265 --enable-libwebp --enable-libspeex
> --enable-libvorbis --enable-libvpx --enable-libfreetype --enable-fontconfig
> --enable-libxvid --enable-libopencore-amrnb --enable-libopencore-amrwb
> --enable-libtheora --enable-libvo-aacenc --enable-libvo-amrwbenc
> --enable-gray --enable-libopenjpeg --enable-libopus --disable-ffserver
> --enable-libass --enable-gnutls --cc=gcc-4.8
>   libavutil      54. 14.100 / 54. 14.100
>   libavcodec     56. 12.101 / 56. 12.101
>   libavformat    56. 14.100 / 56. 14.100
>   libavdevice    56.  3.100 / 56.  3.100
>   libavfilter     5.  2.103 /  5.  2.103
>   libswscale      3.  1.101 /  3.  1.101
>   libswresample   1.  1.100 /  1.  1.100
>   libpostproc    53.  3.100 / 53.  3.100
> [h264 @ 0x2d10c00] non-existing PPS 0 referenced
>     Last message repeated 1 times
> [h264 @ 0x2d10c00] decode_slice_header error
> [h264 @ 0x2d10c00] non-existing PPS 0 referenced
> [h264 @ 0x2d10c00] decode_slice_header error
> [h264 @ 0x2d10c00] non-existing PPS 0 referenced
> [h264 @ 0x2d10c00] decode_slice_header error
> [h264 @ 0x2d10c00] non-existing PPS 0 referenced
> [h264 @ 0x2d10c00] decode_slice_header error
> [h264 @ 0x2d10c00] no frame!
> [h264 @ 0x2d10c00] non-existing PPS 0 referenced
>     Last message repeated 1 times
> [h264 @ 0x2d10c00] decode_slice_header error
> [h264 @ 0x2d10c00] non-existing PPS 0 referenced
> [h264 @ 0x2d10c00] decode_slice_header error
> [h264 @ 0x2d10c00] non-existing PPS 0 referenced
> [h264 @ 0x2d10c00] decode_slice_header error
> [h264 @ 0x2d10c00] non-existing PPS 0 referenced
> [h264 @ 0x2d10c00] decode_slice_header error
> [h264 @ 0x2d10c00] no frame!
> [h264 @ 0x2d10c00] non-existing PPS 0 referenced
>     Last message repeated 1 times
> [h264 @ 0x2d10c00] decode_slice_header error
> [h264 @ 0x2d10c00] non-existing PPS 0 referenced
> [h264 @ 0x2d10c00] decode_slice_header error
> [h264 @ 0x2d10c00] non-existing PPS 0 referenced
> [h264 @ 0x2d10c00] decode_slice_header error
> [h264 @ 0x2d10c00] non-existing PPS 0 referenced
> [h264 @ 0x2d10c00] decode_slice_header error
> [h264 @ 0x2d10c00] no frame!
> [h264 @ 0x2d10c00] non-existing PPS 0 referenced
>     Last message repeated 1 times
> [h264 @ 0x2d10c00] decode_slice_header error
> [h264 @ 0x2d10c00] non-existing PPS 0 referenced
> [h264 @ 0x2d10c00] decode_slice_header error
> [h264 @ 0x2d10c00] non-existing PPS 0 referenced
> [h264 @ 0x2d10c00] decode_slice_header error
> [h264 @ 0x2d10c00] non-existing PPS 0 referenced
> [h264 @ 0x2d10c00] decode_slice_header error
> [h264 @ 0x2d10c00] no frame!
> [h264 @ 0x2d10c00] non-existing PPS 0 referenced
>     Last message repeated 1 times
> [h264 @ 0x2d10c00] decode_slice_header error
> [h264 @ 0x2d10c00] non-existing PPS 0 referenced
> [h264 @ 0x2d10c00] decode_slice_header error
> [h264 @ 0x2d10c00] non-existing PPS 0 referenced
> [h264 @ 0x2d10c00] decode_slice_header error
> [h264 @ 0x2d10c00] non-existing PPS 0 referenced
> [h264 @ 0x2d10c00] decode_slice_header error
> [h264 @ 0x2d10c00] no frame!
> [h264 @ 0x2d10c00] non-existing PPS 0 referenced
>     Last message repeated 1 times
> [h264 @ 0x2d10c00] decode_slice_header error
> [h264 @ 0x2d10c00] non-existing PPS 0 referenced
> [h264 @ 0x2d10c00] decode_slice_header error
> [h264 @ 0x2d10c00] non-existing PPS 0 referenced
> [h264 @ 0x2d10c00] decode_slice_header error
> [h264 @ 0x2d10c00] non-existing PPS 0 referenced
> [h264 @ 0x2d10c00] decode_slice_header error
> [h264 @ 0x2d10c00] no frame!
> [h264 @ 0x2d10c00] non-existing PPS 0 referenced
>     Last message repeated 1 times
> [h264 @ 0x2d10c00] decode_slice_header error
> [h264 @ 0x2d10c00] non-existing PPS 0 referenced
> [h264 @ 0x2d10c00] decode_slice_header error
> [h264 @ 0x2d10c00] non-existing PPS 0 referenced
> [h264 @ 0x2d10c00] decode_slice_header error
> [h264 @ 0x2d10c00] non-existing PPS 0 referenced
> [h264 @ 0x2d10c00] decode_slice_header error
> [h264 @ 0x2d10c00] no frame!
> [h264 @ 0x2d10c00] non-existing PPS 0 referenced
>     Last message repeated 1 times
> [h264 @ 0x2d10c00] decode_slice_header error
> [h264 @ 0x2d10c00] non-existing PPS 0 referenced
> [h264 @ 0x2d10c00] decode_slice_header error
> [h264 @ 0x2d10c00] non-existing PPS 0 referenced
> [h264 @ 0x2d10c00] decode_slice_header error
> [h264 @ 0x2d10c00] non-existing PPS 0 referenced
> [h264 @ 0x2d10c00] decode_slice_header error
> [h264 @ 0x2d10c00] no frame!
> Input #0, mpegts, from 'udp://@:5006':
>   Duration: N/A, start: 1934.888000, bitrate: 224 kb/s
>   Program 1
>     Metadata:
>       service_name    : test-servicename
>       service_provider: test-provider
>     Stream #0:0[0x200]: Video: h264 (High) ([27][0][0][0] / 0x001B),
> yuv420p(tv, bt709), 1920x1080 [SAR 1:1 DAR 16:9], 25 fps, 25 tbr, 90k tbn,
> 50 tbc
>     Stream #0:1[0x1010](eng): Audio: mp2 ([3][0][0][0] / 0x0003), 48000 Hz,
> stereo, s16p, 224 kb/s
> Output #0, mpegts, to 'udp://193.252.151.106:5004?pkt_size=1316?ttl=128':
>   Metadata:
>     service_name    : test
>     service_provider: test2
>     encoder         : Lavf56.14.100
>     Stream #0:0: Video: h264 ([27][0][0][0] / 0x001B), yuv420p, 1920x1080
> [SAR 1:1 DAR 16:9], q=2-31, 25 fps, 90k tbn, 25 tbc
>     Stream #0:1(eng): Audio: mp2 ([3][0][0][0] / 0x0003), 48000 Hz, stereo,
> 224 kb/s
> Stream mapping:
>   Stream #0:0 -> #0:0 (copy)
>   Stream #0:1 -> #0:1 (copy)
> Press [q] to stop, [?] for help
> frame=  130 fps=0.0 q=-1.0 size=    2646kB time=00:00:05.61
> bitrate=3859.4kbits/frame=  143 fps=142 q=-1.0 size=    2907kB
> time=00:00:06.09 bitrate=3906.6kbits/frame=  156 fps=103 q=-1.0 size=  
> 3173kB time=00:00:06.60 bitrate=3938.9kbits/frame=  168 fps= 84 q=-1.0 size=  
> 3414kB time=00:00:07.10 bitrate=3936.8kbits/frame=  181 fps= 72 q=-1.0 size=  
> 3676kB time=00:00:07.60 bitrate=3957.9kbits/frame=  193 fps= 64 q=-1.0 size=  
> 3919kB time=00:00:08.13 bitrate=3945.8kbits/frame=  206 fps= 58 q=-1.0 size=  
> 4180kB time=00:00:08.61 bitrate=3974.5kbits/frame=  219 fps= 54 q=-1.0 size=  
> 4443kB time=00:00:09.12 bitrate=3990.7kbits/frame=  231 fps= 51 q=-1.0 size=  
> 4684kB time=00:00:09.62 bitrate=3987.4kbits/frame=  244 fps= 48 q=-1.0 size=  
> 4937kB time=00:00:10.12 bitrate=3993.0kbits/frame=  256 fps= 46 q=-1.0 size=  
> 5182kB time=00:00:10.65 bitrate=3983.7kbits/frame=  269 fps= 44 q=-1.0 size=  
> 5447kB time=00:00:11.13 bitrate=4006.9kbits/frame=  282 fps= 43 q=-1.0 size=  
> 5711kB time=00:00:11.64 bitrate=4019.5kbits/frame=  294 fps= 42 q=-1.0 size=  
> 5952kB time=00:00:12.14 bitrate=4015.4kbits/frame=  307 fps= 41 q=-1.0 size=  
> 6218kB time=00:00:12.64 bitrate=4027.1kbits/frame=  319 fps= 40 q=-1.0 size=  
> 6459kB time=00:00:13.17 bitrate=4015.6kbits/frame=  332 fps= 39 q=-1.0 size=  
> 6721kB time=00:00:13.65 bitrate=4031.8kbits/frame=  345 fps= 38 q=-1.0 size=  
> 6980kB time=00:00:14.16 bitrate=4037.9kbits/frame=  357 fps= 37 q=-1.0 size=  
> 7221kB time=00:00:14.66 bitrate=4034.2kbits/frame=  370 fps= 37 q=-1.0 size=  
> 7485kB time=00:00:15.16 bitrate=4042.6kbits/frame=  382 fps= 36 q=-1.0 size=  
> 7727kB time=00:00:15.69 bitrate=4032.6kbits/frame=  395 fps= 36 q=-1.0 size=  
> 7988kB time=00:00:16.17 bitrate=4045.3kbits/frame=  408 fps= 35 q=-1.0 size=  
> 8240kB time=00:00:16.68 bitrate=4047.0kbits/frame=  420 fps= 35 q=-1.0 size=  
> 8478kB time=00:00:17.18 bitrate=4041.8kbits/frame=  433 fps= 34 q=-1.0 size=  
> 8741kB time=00:00:17.68 bitrate=4048.4kbits/frame=  445 fps= 34 q=-1.0 size=  
> 8983kB time=00:00:18.21 bitrate=4039.8kbits/frame=  458 fps= 34 q=-1.0 size=  
> 9250kB time=00:00:18.69 bitrate=4052.9kbits/frame=  471 fps= 33 q=-1.0 size=  
> 9512kB time=00:00:19.20 bitrate=4058.4kbits/frame=  483 fps= 33 q=-1.0 size=  
> 9755kB time=00:00:19.70 bitrate=4055.9kbits/frame=  496 fps= 33 q=-1.0 size=  
> 10011kB time=00:00:20.20 bitrate=4058.4kbits/frame=  508 fps= 33 q=-1.0
> size=   10251kB time=00:00:20.73 bitrate=4049.8kbits/frame=  521 fps= 32
> q=-1.0 size=   10512kB time=00:00:21.21 bitrate=4058.8kbits/frame=  526 fps=
> 32 q=-1.0 Lsize=   10616kB time=00:00:21.43 bitrate=4057.6kbits/s    
> video:9187kB audio:586kB subtitle:0kB other streams:0kB global headers:0kB
> muxing overhead: 8.621732%
> Received signal 2: terminating.
>
>
>
> --
> View this message in context: http://ffmpeg-users.933282.n4.nabble.com/ffmpeg-profesional-decoder-compatibility-mpegts-tp4668216p4668229.html
> Sent from the FFmpeg-users mailing list archive at Nabble.com.
> _______________________________________________
> ffmpeg-user mailing list
> [hidden email]
> http://ffmpeg.org/mailman/listinfo/ffmpeg-user

I dont see any problem in ffmpeg, you r not using ffmpeg codecs
to encode either video or audio. so if the generated video does not work on
any professional  decoder then there is problem in Encoder of Input
provider.

Thanks
Anshul



_______________________________________________
ffmpeg-user mailing list
[hidden email]
http://ffmpeg.org/mailman/listinfo/ffmpeg-user
Reply | Threaded
Open this post in threaded view
|

Re: ffmpeg profesional decoder compatibility mpegts

AlexandreL
i'm agree but the encoder used is a professional one (same brand as the decoder), Ateme.

When i stream directly from the Ateme encoder to the Ateme decoder, it works.
When i stream from the Ateme encoder through ffmpeg and ffmpeg streaming to the decoder, it's not working.

What i don't understand is why it's not working ?
because professional equipment are only working with professional equipment ?

i'm sure we can do the trick, i'm sure of that
maybe it's just something about the PCR pid or program pid or whatever

i'm also compiling ffmpeg with the tutorial https://trac.ffmpeg.org/wiki/CompilationGuide/Ubuntu and i will try in few minutes



Reply | Threaded
Open this post in threaded view
|

Re: ffmpeg profesional decoder compatibility mpegts

AlexandreL
This post was updated on .
no it's the same with the compiled version



c-100-2@c1002-ProLiant-DL360-G6:~/bin$ cd ~/bin && ./ffmpeg -i udp://@:5006  -vcodec copy -acodec copy -streamid 0:512 -streamid 1:4112 -metadata:s:a:0 language=eng -metadata service_name=test  -metadata service_provider=test2 -mpegts_service_id 0x1  -f mpegts udp://193.252.151.106:5004?pkt_size=1316?ttl=128
ffmpeg version 2.4.git Copyright (c) 2000-2014 the FFmpeg developers
  built on Nov 20 2014 16:12:29 with gcc 4.6 (Ubuntu/Linaro 4.6.3-1ubuntu5)
  configuration: --prefix=/home/c-100-2/ffmpeg_build --extra-cflags=-I/home/c-100-2/ffmpeg_build/include --extra-ldflags=-L/home/c-100-2/ffmpeg_build/lib --bindir=/home/c-100-2/bin --enable-gpl --enable-libass --enable-libfdk-aac --enable-libfreetype --enable-libmp3lame --enable-libopus --enable-libtheora --enable-libvorbis --enable-libvpx --enable-libx264 --enable-nonfree --enable-x11grab
  libavutil      54. 14.100 / 54. 14.100
  libavcodec     56. 12.101 / 56. 12.101
  libavformat    56. 14.100 / 56. 14.100
  libavdevice    56.  3.100 / 56.  3.100
  libavfilter     5.  2.103 /  5.  2.103
  libswscale      3.  1.101 /  3.  1.101
  libswresample   1.  1.100 /  1.  1.100
  libpostproc    53.  3.100 / 53.  3.100
[h264 @ 0x312efe0] non-existing PPS 0 referenced
    Last message repeated 1 times
[h264 @ 0x312efe0] decode_slice_header error
[h264 @ 0x312efe0] non-existing PPS 0 referenced
[h264 @ 0x312efe0] decode_slice_header error
[h264 @ 0x312efe0] non-existing PPS 0 referenced
[h264 @ 0x312efe0] decode_slice_header error
[h264 @ 0x312efe0] non-existing PPS 0 referenced
[h264 @ 0x312efe0] decode_slice_header error
[h264 @ 0x312efe0] no frame!
[h264 @ 0x312efe0] non-existing PPS 0 referenced
    Last message repeated 1 times
[h264 @ 0x312efe0] decode_slice_header error
[h264 @ 0x312efe0] non-existing PPS 0 referenced
[h264 @ 0x312efe0] decode_slice_header error
[h264 @ 0x312efe0] non-existing PPS 0 referenced
[h264 @ 0x312efe0] decode_slice_header error
[h264 @ 0x312efe0] non-existing PPS 0 referenced
[h264 @ 0x312efe0] decode_slice_header error
[h264 @ 0x312efe0] no frame!
[h264 @ 0x312efe0] non-existing PPS 0 referenced
    Last message repeated 1 times
[h264 @ 0x312efe0] decode_slice_header error
[h264 @ 0x312efe0] non-existing PPS 0 referenced
[h264 @ 0x312efe0] decode_slice_header error
[h264 @ 0x312efe0] non-existing PPS 0 referenced
[h264 @ 0x312efe0] decode_slice_header error
[h264 @ 0x312efe0] non-existing PPS 0 referenced
[h264 @ 0x312efe0] decode_slice_header error
[h264 @ 0x312efe0] no frame!
[h264 @ 0x312efe0] non-existing PPS 0 referenced
    Last message repeated 1 times
[h264 @ 0x312efe0] decode_slice_header error
[h264 @ 0x312efe0] non-existing PPS 0 referenced
[h264 @ 0x312efe0] decode_slice_header error
[h264 @ 0x312efe0] non-existing PPS 0 referenced
[h264 @ 0x312efe0] decode_slice_header error
[h264 @ 0x312efe0] non-existing PPS 0 referenced
[h264 @ 0x312efe0] decode_slice_header error
[h264 @ 0x312efe0] no frame!
[h264 @ 0x312efe0] non-existing PPS 0 referenced
    Last message repeated 1 times
[h264 @ 0x312efe0] decode_slice_header error
[h264 @ 0x312efe0] non-existing PPS 0 referenced
[h264 @ 0x312efe0] decode_slice_header error
[h264 @ 0x312efe0] non-existing PPS 0 referenced
[h264 @ 0x312efe0] decode_slice_header error
[h264 @ 0x312efe0] non-existing PPS 0 referenced
[h264 @ 0x312efe0] decode_slice_header error
[h264 @ 0x312efe0] no frame!
[h264 @ 0x312efe0] non-existing PPS 0 referenced
    Last message repeated 1 times
[h264 @ 0x312efe0] decode_slice_header error
[h264 @ 0x312efe0] non-existing PPS 0 referenced
[h264 @ 0x312efe0] decode_slice_header error
[h264 @ 0x312efe0] non-existing PPS 0 referenced
[h264 @ 0x312efe0] decode_slice_header error
[h264 @ 0x312efe0] non-existing PPS 0 referenced
[h264 @ 0x312efe0] decode_slice_header error
[h264 @ 0x312efe0] no frame!
[h264 @ 0x312efe0] non-existing PPS 0 referenced
    Last message repeated 1 times
[h264 @ 0x312efe0] decode_slice_header error
[h264 @ 0x312efe0] non-existing PPS 0 referenced
[h264 @ 0x312efe0] decode_slice_header error
[h264 @ 0x312efe0] non-existing PPS 0 referenced
[h264 @ 0x312efe0] decode_slice_header error
[h264 @ 0x312efe0] non-existing PPS 0 referenced
[h264 @ 0x312efe0] decode_slice_header error
[h264 @ 0x312efe0] no frame!
[h264 @ 0x312efe0] non-existing PPS 0 referenced
    Last message repeated 1 times
[h264 @ 0x312efe0] decode_slice_header error
[h264 @ 0x312efe0] non-existing PPS 0 referenced
[h264 @ 0x312efe0] decode_slice_header error
[h264 @ 0x312efe0] non-existing PPS 0 referenced
[h264 @ 0x312efe0] decode_slice_header error
[h264 @ 0x312efe0] non-existing PPS 0 referenced
[h264 @ 0x312efe0] decode_slice_header error
[h264 @ 0x312efe0] no frame!
[h264 @ 0x312efe0] non-existing PPS 0 referenced
    Last message repeated 1 times
[h264 @ 0x312efe0] decode_slice_header error
[h264 @ 0x312efe0] non-existing PPS 0 referenced
[h264 @ 0x312efe0] decode_slice_header error
[h264 @ 0x312efe0] non-existing PPS 0 referenced
[h264 @ 0x312efe0] decode_slice_header error
[h264 @ 0x312efe0] non-existing PPS 0 referenced
[h264 @ 0x312efe0] decode_slice_header error
[h264 @ 0x312efe0] no frame!
[h264 @ 0x312efe0] non-existing PPS 0 referenced
    Last message repeated 1 times
[h264 @ 0x312efe0] decode_slice_header error
[h264 @ 0x312efe0] non-existing PPS 0 referenced
[h264 @ 0x312efe0] decode_slice_header error
[h264 @ 0x312efe0] non-existing PPS 0 referenced
[h264 @ 0x312efe0] decode_slice_header error
[h264 @ 0x312efe0] non-existing PPS 0 referenced
[h264 @ 0x312efe0] decode_slice_header error
[h264 @ 0x312efe0] no frame!
[h264 @ 0x312efe0] non-existing PPS 0 referenced
    Last message repeated 1 times
[h264 @ 0x312efe0] decode_slice_header error
[h264 @ 0x312efe0] non-existing PPS 0 referenced
[h264 @ 0x312efe0] decode_slice_header error
[h264 @ 0x312efe0] non-existing PPS 0 referenced
[h264 @ 0x312efe0] decode_slice_header error
[h264 @ 0x312efe0] non-existing PPS 0 referenced
[h264 @ 0x312efe0] decode_slice_header error
[h264 @ 0x312efe0] no frame!
[h264 @ 0x312efe0] non-existing PPS 0 referenced
    Last message repeated 1 times
[h264 @ 0x312efe0] decode_slice_header error
[h264 @ 0x312efe0] non-existing PPS 0 referenced
[h264 @ 0x312efe0] decode_slice_header error
[h264 @ 0x312efe0] non-existing PPS 0 referenced
[h264 @ 0x312efe0] decode_slice_header error
[h264 @ 0x312efe0] non-existing PPS 0 referenced
[h264 @ 0x312efe0] decode_slice_header error
[h264 @ 0x312efe0] no frame!
[h264 @ 0x312efe0] non-existing PPS 0 referenced
    Last message repeated 1 times
[h264 @ 0x312efe0] decode_slice_header error
[h264 @ 0x312efe0] non-existing PPS 0 referenced
[h264 @ 0x312efe0] decode_slice_header error
[h264 @ 0x312efe0] non-existing PPS 0 referenced
[h264 @ 0x312efe0] decode_slice_header error
[h264 @ 0x312efe0] non-existing PPS 0 referenced
[h264 @ 0x312efe0] decode_slice_header error
[h264 @ 0x312efe0] no frame!
[h264 @ 0x312efe0] non-existing PPS 0 referenced
    Last message repeated 1 times
[h264 @ 0x312efe0] decode_slice_header error
[h264 @ 0x312efe0] non-existing PPS 0 referenced
[h264 @ 0x312efe0] decode_slice_header error
[h264 @ 0x312efe0] non-existing PPS 0 referenced
[h264 @ 0x312efe0] decode_slice_header error
[h264 @ 0x312efe0] non-existing PPS 0 referenced
[h264 @ 0x312efe0] decode_slice_header error
[h264 @ 0x312efe0] no frame!
[h264 @ 0x312efe0] non-existing PPS 0 referenced
    Last message repeated 1 times
[h264 @ 0x312efe0] decode_slice_header error
[h264 @ 0x312efe0] non-existing PPS 0 referenced
[h264 @ 0x312efe0] decode_slice_header error
[h264 @ 0x312efe0] non-existing PPS 0 referenced
[h264 @ 0x312efe0] decode_slice_header error
[h264 @ 0x312efe0] non-existing PPS 0 referenced
[h264 @ 0x312efe0] decode_slice_header error
[h264 @ 0x312efe0] no frame!
[h264 @ 0x312efe0] non-existing PPS 0 referenced
    Last message repeated 1 times
[h264 @ 0x312efe0] decode_slice_header error
[h264 @ 0x312efe0] non-existing PPS 0 referenced
[h264 @ 0x312efe0] decode_slice_header error
[h264 @ 0x312efe0] non-existing PPS 0 referenced
[h264 @ 0x312efe0] decode_slice_header error
[h264 @ 0x312efe0] non-existing PPS 0 referenced
[h264 @ 0x312efe0] decode_slice_header error
[h264 @ 0x312efe0] no frame!
[h264 @ 0x312efe0] non-existing PPS 0 referenced
    Last message repeated 1 times
[h264 @ 0x312efe0] decode_slice_header error
[h264 @ 0x312efe0] non-existing PPS 0 referenced
[h264 @ 0x312efe0] decode_slice_header error
[h264 @ 0x312efe0] non-existing PPS 0 referenced
[h264 @ 0x312efe0] decode_slice_header error
[h264 @ 0x312efe0] non-existing PPS 0 referenced
[h264 @ 0x312efe0] decode_slice_header error
[h264 @ 0x312efe0] no frame!
[h264 @ 0x312efe0] non-existing PPS 0 referenced
    Last message repeated 1 times
[h264 @ 0x312efe0] decode_slice_header error
[h264 @ 0x312efe0] non-existing PPS 0 referenced
[h264 @ 0x312efe0] decode_slice_header error
[h264 @ 0x312efe0] non-existing PPS 0 referenced
[h264 @ 0x312efe0] decode_slice_header error
[h264 @ 0x312efe0] non-existing PPS 0 referenced
[h264 @ 0x312efe0] decode_slice_header error
[h264 @ 0x312efe0] no frame!
[h264 @ 0x312efe0] non-existing PPS 0 referenced
    Last message repeated 1 times
[h264 @ 0x312efe0] decode_slice_header error
[h264 @ 0x312efe0] non-existing PPS 0 referenced
[h264 @ 0x312efe0] decode_slice_header error
[h264 @ 0x312efe0] non-existing PPS 0 referenced
[h264 @ 0x312efe0] decode_slice_header error
[h264 @ 0x312efe0] non-existing PPS 0 referenced
[h264 @ 0x312efe0] decode_slice_header error
[h264 @ 0x312efe0] no frame!
[h264 @ 0x312efe0] non-existing PPS 0 referenced
    Last message repeated 1 times
[h264 @ 0x312efe0] decode_slice_header error
[h264 @ 0x312efe0] non-existing PPS 0 referenced
[h264 @ 0x312efe0] decode_slice_header error
[h264 @ 0x312efe0] non-existing PPS 0 referenced
[h264 @ 0x312efe0] decode_slice_header error
[h264 @ 0x312efe0] non-existing PPS 0 referenced
[h264 @ 0x312efe0] decode_slice_header error
[h264 @ 0x312efe0] no frame!
[h264 @ 0x312efe0] non-existing PPS 0 referenced
    Last message repeated 1 times
[h264 @ 0x312efe0] decode_slice_header error
[h264 @ 0x312efe0] non-existing PPS 0 referenced
[h264 @ 0x312efe0] decode_slice_header error
[h264 @ 0x312efe0] non-existing PPS 0 referenced
[h264 @ 0x312efe0] decode_slice_header error
[h264 @ 0x312efe0] non-existing PPS 0 referenced
[h264 @ 0x312efe0] decode_slice_header error
[h264 @ 0x312efe0] no frame!
[h264 @ 0x312efe0] non-existing PPS 0 referenced
    Last message repeated 1 times
[h264 @ 0x312efe0] decode_slice_header error
[h264 @ 0x312efe0] non-existing PPS 0 referenced
[h264 @ 0x312efe0] decode_slice_header error
[h264 @ 0x312efe0] non-existing PPS 0 referenced
[h264 @ 0x312efe0] decode_slice_header error
[h264 @ 0x312efe0] non-existing PPS 0 referenced
[h264 @ 0x312efe0] decode_slice_header error
[h264 @ 0x312efe0] no frame!
[h264 @ 0x312efe0] non-existing PPS 0 referenced
    Last message repeated 1 times
[h264 @ 0x312efe0] decode_slice_header error
[h264 @ 0x312efe0] non-existing PPS 0 referenced
[h264 @ 0x312efe0] decode_slice_header error
[h264 @ 0x312efe0] non-existing PPS 0 referenced
[h264 @ 0x312efe0] decode_slice_header error
[h264 @ 0x312efe0] non-existing PPS 0 referenced
[h264 @ 0x312efe0] decode_slice_header error
[h264 @ 0x312efe0] no frame!
Input #0, mpegts, from 'udp://@:5006':
  Duration: N/A, start: 3996.440000, bitrate: 224 kb/s
  Program 1
    Metadata:
      service_name    : test-servicename
      service_provider: test-provider
    Stream #0:0[0x200]: Video: h264 (High) ([27][0][0][0] / 0x001B), yuv420p(tv, bt709), 1920x1080 [SAR 1:1 DAR 16:9], 25 fps, 25 tbr, 90k tbn, 50 tbc
    Stream #0:1[0x1010](eng): Audio: mp2 ([3][0][0][0] / 0x0003), 48000 Hz, stereo, s16p, 224 kb/s
Output #0, mpegts, to 'udp://193.252.151.106:5004?pkt_size=1316?ttl=128':
  Metadata:
    service_name    : test
    service_provider: test2
    encoder         : Lavf56.14.100
    Stream #0:0: Video: h264 ([27][0][0][0] / 0x001B), yuv420p, 1920x1080 [SAR 1:1 DAR 16:9], q=2-31, 25 fps, 90k tbn, 25 tbc
    Stream #0:1(eng): Audio: mp2 ([3][0][0][0] / 0x0003), 48000 Hz, stereo, 224 kb/s
Stream mapping:
  Stream #0:0 -> #0:0 (copy)
  Stream #0:1 -> #0:1 (copy)
Press [q] to stop, [?] for help
frame=  178 fps= 59 q=-1.0 Lsize=    3609kB time=00:00:08.08 bitrate=3655.5kbits/s    
video:3099kB audio:221kB subtitle:0kB other streams:0kB global headers:0kB muxing overhead: 8.698487%
Received signal 2: terminating.
Reply | Threaded
Open this post in threaded view
|

Re: ffmpeg profesional decoder compatibility mpegts

Nicolas George
In reply to this post by Carl Eugen Hoyos
Le decadi 30 brumaire, an CCXXIII, Carl Eugen Hoyos a écrit :

> This looks like an intentionally broken version of
> FFmpeg that contains several hundred known bugs not
> present in FFmpeg, some of them security relevant,
> please understand that we cannot support it here.
> Please see http://ffmpeg.org/download.html for
> supported versions, please test *current git head*
> before reporting problems here.
>
> See http://blog.pkh.me/p/13-the-ffmpeg-libav-situation.html 
> for more information about the fraud that hit you.
                                 ^^^^^
Please avoid derogatory terms for old issues, dwelling on the past will not
bring anything.

Regards,

--
  Nicolas George

_______________________________________________
ffmpeg-user mailing list
[hidden email]
http://ffmpeg.org/mailman/listinfo/ffmpeg-user

signature.asc (836 bytes) Download Attachment
Reply | Threaded
Open this post in threaded view
|

Re: ffmpeg profesional decoder compatibility mpegts

Carl Eugen Hoyos
In reply to this post by AlexandreL
AlexandreL <licinio.alexandre <at> gmail.com> writes:

> i just updated to the last version
> it's not working again

Does it work if you don't use -codec copy but if
you encode to mpeg2video or libx264?
Did you already try audio-only or video-only?

Carl Eugen

_______________________________________________
ffmpeg-user mailing list
[hidden email]
http://ffmpeg.org/mailman/listinfo/ffmpeg-user
Reply | Threaded
Open this post in threaded view
|

Re: ffmpeg profesional decoder compatibility mpegts

AlexandreL
i tried with video only and audio only > no success
i tried this command

c-100-2@c1002-ProLiant-DL360-G6:~/bin$ cd ~/bin && ./ffmpeg -i udp://@:5006  -c:v libx264 -profile:v high -preset ultrafast -threads 12  -b:v 4000k -maxrate 4000k -bufsize 8000k  -c:a copy  -streamid 0:512 -streamid 1:4112 -metadata:s:a:0 language=eng -metadata service_name=test  -metadata service_provider=test2 -mpegts_service_id 0x1  -f mpegts udp://193.252.151.106:5004?pkt_size=1316?ttl=128

great in vlc but not working with the professional decoder


WHY WHY WHY WHY ???
most of the professional devices are working through a ffmpeg core !

i will try in mpeg2
Reply | Threaded
Open this post in threaded view
|

Re: ffmpeg profesional decoder compatibility mpegts

AlexandreL
no success too with mpeg2

i'm sure it's possible to do it
i need more coffee !!