configure ffmpeg first time.

Previous Topic Next Topic
 
classic Classic list List threaded Threaded
1 message Options
Reply | Threaded
Open this post in threaded view
|

configure ffmpeg first time.

toben blalock
Hello and thank you for helping me out.

I am trying to convert from .mov to .wmv.
Well I downloaded through svn. I did ./configure make and make install.

This led to errors about mp3 codec not found so I downloaded lame then
did a ./configure make and install

I then redid config with ffmeg so it was
'./configure --enable-libmp3lame' then make and make install
 
Now when I do 'ffmpeg -v'  I get:
FFmpeg version SVN-r11482, Copyright (c) 2000-2008 Fabrice Bellard, et
al.
  configuration: --enable-libmp3lame
  libavutil version: 49.6.0
  libavcodec version: 51.49.0
  libavformat version: 52.3.0
  built on Jan  9 2008 15:23:32, gcc: 4.1.2 20070626 (Red Hat 4.1.2-14)
ffmpeg: missing argument for option '-v'

So it looks like libmp3lame is there but when I run the command:
'ffmpeg -i ctv.mov -vcodec wmv1 -acodec libmp3lame outfile.wmv' I get

FFmpeg version SVN-r11482, Copyright (c) 2000-2008 Fabrice Bellard, et
al.
  configuration: --enable-libmp3lame
  libavutil version: 49.6.0
  libavcodec version: 51.49.0
  libavformat version: 52.3.0
  built on Jan  9 2008 15:23:32, gcc: 4.1.2 20070626 (Red Hat 4.1.2-14)

Seems stream 0 codec frame rate differs from container frame rate:
1000.00 (1000/1) -> 29.97 (30000/1001)
Input #0, mov,mp4,m4a,3gp,3g2,mj2, from 'ctv.mov':
  Duration: 00:00:40.0, start: 0.000000, bitrate: 16058 kb/s
    Stream #0.0(eng): Video: mpeg4, yuv420p, 720x480 [PAR 1:1 DAR 3:2],
29.97 tb(r)
    Stream #0.1(eng): Audio: pcm_s16be, 44100 Hz, stereo, 1411 kb/s
Unknown encoder 'libmp3lame'

It still says unknown encoder libmp3lame

Any help would be appreciated - I am using centos 5 updated with newest
snv of lame and ffmpeg

Thank you!

_______________________________________________
ffmpeg-user mailing list
[hidden email]
http://lists.mplayerhq.hu/mailman/listinfo/ffmpeg-user