coding video for some old Sony

classic Classic list List threaded Threaded
57 messages Options
123
Reply | Threaded
Open this post in threaded view
|

coding video for some old Sony

Erik Dobák
Hi,

i have an old Sony Bravia which accepts only MPEG4 as video and MP3 as
audio. If i want to watch videos i do it with this command:

ffmpeg -i the_kingdom_of_dreams_and_madness.mp4 -b:v 1M -vcodec mpeg4 -vtag
xvid -acodec libmp3lame -q:a 2 the_kingdom_of_dreams_and_madness.avi

but for some reason some video do not play at all. some do.

is there a way that the input video could influence the output? I thought
that when i resample with ffmpeg to these basic codecs all will work...

Any hints?

E
_______________________________________________
ffmpeg-user mailing list
[hidden email]
https://ffmpeg.org/mailman/listinfo/ffmpeg-user

To unsubscribe, visit link above, or email
[hidden email] with subject "unsubscribe".
Reply | Threaded
Open this post in threaded view
|

Re: coding video for some old Sony

Carl Zwanzig
On 8/8/2019 12:06 PM, Erik Dobák wrote:
> i have an old Sony Bravia which accepts only MPEG4 as video and MP3 as
> audio. If i want to watch videos i do it with this command:
>
> ffmpeg -i the_kingdom_of_dreams_and_madness.mp4 -b:v 1M -vcodec mpeg4 -vtag
> xvid -acodec libmp3lame -q:a 2 the_kingdom_of_dreams_and_madness.avi
>
> but for some reason some video do not play at all. some do.

That's converting an mp4 to an avi, '-i' identifies the input. Start by
swapping in and out file types, you can then remove the codecs since mpeg4
and matching audio are assumed from the file type. That said, the Bravia may
be more sensitive to encodings than a simple "needs mpeg4".

In the future, please post the full/un-cut command output and do not
top-post the reply.

Later,

z!


_______________________________________________
ffmpeg-user mailing list
[hidden email]
https://ffmpeg.org/mailman/listinfo/ffmpeg-user

To unsubscribe, visit link above, or email
[hidden email] with subject "unsubscribe".
Reply | Threaded
Open this post in threaded view
|

Re: coding video for some old Sony

Kieran O Leary
In reply to this post by Erik Dobák
Hi

On Thu, 8 Aug 2019, 20:07 Erik Dobák, <[hidden email]> wrote:

> Hi,
>
> i have an old Sony Bravia which accepts only MPEG4 as video and MP3 as
> audio. If i want to watch videos i do it with this command:
>
> ffmpeg -i the_kingdom_of_dreams_and_madness.mp4 -b:v 1M -vcodec mpeg4 -vtag
> xvid -acodec libmp3lame -q:a 2 the_kingdom_of_dreams_and_madness.avi
>
> but for some reason some video do not play at all. some do.
>
> is there a way that the input video could influence the output? I thought
> that when i resample with ffmpeg to these basic codecs all will work...
>
Maybe frame size and bitrate? Post the complete console output of an
instance where the file worked ok your TV and one instance where it didn't.

Best,

Kieran



> Any hints?
>
> E
> _______________________________________________
> ffmpeg-user mailing list
> [hidden email]
> https://ffmpeg.org/mailman/listinfo/ffmpeg-user
>
> To unsubscribe, visit link above, or email
> [hidden email] with subject "unsubscribe".
_______________________________________________
ffmpeg-user mailing list
[hidden email]
https://ffmpeg.org/mailman/listinfo/ffmpeg-user

To unsubscribe, visit link above, or email
[hidden email] with subject "unsubscribe".
Reply | Threaded
Open this post in threaded view
|

Re: coding video for some old Sony

Erik Dobák
In reply to this post by Carl Zwanzig
well how do i do the define a more refined codec than mpeg4? and why does
it play with this sometime and sometimes not.
the command is uncut except the -i <filename>.

On Thu, 8 Aug 2019 at 21:13, Carl Zwanzig <[hidden email]> wrote:

> On 8/8/2019 12:06 PM, Erik Dobák wrote:
> > i have an old Sony Bravia which accepts only MPEG4 as video and MP3 as
> > audio. If i want to watch videos i do it with this command:
> >
> > ffmpeg -i the_kingdom_of_dreams_and_madness.mp4 -b:v 1M -vcodec mpeg4
> -vtag
> > xvid -acodec libmp3lame -q:a 2 the_kingdom_of_dreams_and_madness.avi
> >
> > but for some reason some video do not play at all. some do.
>
> That's converting an mp4 to an avi, '-i' identifies the input. Start by
> swapping in and out file types, you can then remove the codecs since mpeg4
> and matching audio are assumed from the file type. That said, the Bravia
> may
> be more sensitive to encodings than a simple "needs mpeg4".
>
> In the future, please post the full/un-cut command output and do not
> top-post the reply.
>
> Later,
>
> z!
>
>
> _______________________________________________
> ffmpeg-user mailing list
> [hidden email]
> https://ffmpeg.org/mailman/listinfo/ffmpeg-user
>
> To unsubscribe, visit link above, or email
> [hidden email] with subject "unsubscribe".
_______________________________________________
ffmpeg-user mailing list
[hidden email]
https://ffmpeg.org/mailman/listinfo/ffmpeg-user

To unsubscribe, visit link above, or email
[hidden email] with subject "unsubscribe".
Reply | Threaded
Open this post in threaded view
|

Re: coding video for some old Sony

Erik Dobák
In reply to this post by Kieran O Leary
that is great idea thank you will check specific videos next day. got to go
to bed.
cheers
E

On Thu, 8 Aug 2019 at 21:20, Kieran O Leary <[hidden email]>
wrote:

> Hi
>
> On Thu, 8 Aug 2019, 20:07 Erik Dobák, <[hidden email]> wrote:
>
> > Hi,
> >
> > i have an old Sony Bravia which accepts only MPEG4 as video and MP3 as
> > audio. If i want to watch videos i do it with this command:
> >
> > ffmpeg -i the_kingdom_of_dreams_and_madness.mp4 -b:v 1M -vcodec mpeg4
> -vtag
> > xvid -acodec libmp3lame -q:a 2 the_kingdom_of_dreams_and_madness.avi
> >
> > but for some reason some video do not play at all. some do.
> >
> > is there a way that the input video could influence the output? I thought
> > that when i resample with ffmpeg to these basic codecs all will work...
> >
> Maybe frame size and bitrate? Post the complete console output of an
> instance where the file worked ok your TV and one instance where it didn't.
>
> Best,
>
> Kieran
>
>
>
> > Any hints?
> >
> > E
> > _______________________________________________
> > ffmpeg-user mailing list
> > [hidden email]
> > https://ffmpeg.org/mailman/listinfo/ffmpeg-user
> >
> > To unsubscribe, visit link above, or email
> > [hidden email] with subject "unsubscribe".
> _______________________________________________
> ffmpeg-user mailing list
> [hidden email]
> https://ffmpeg.org/mailman/listinfo/ffmpeg-user
>
> To unsubscribe, visit link above, or email
> [hidden email] with subject "unsubscribe".
_______________________________________________
ffmpeg-user mailing list
[hidden email]
https://ffmpeg.org/mailman/listinfo/ffmpeg-user

To unsubscribe, visit link above, or email
[hidden email] with subject "unsubscribe".
Reply | Threaded
Open this post in threaded view
|

Re: coding video for some old Sony

Kieran O Leary
On Thu, 8 Aug 2019, 20:25 Erik Dobák, <[hidden email]> wrote:

> that is great idea thank you will check specific videos next day. got to go
> to bed.
>


Good night Erik,

Best,

Kieran.
_______________________________________________
ffmpeg-user mailing list
[hidden email]
https://ffmpeg.org/mailman/listinfo/ffmpeg-user

To unsubscribe, visit link above, or email
[hidden email] with subject "unsubscribe".
Reply | Threaded
Open this post in threaded view
|

Re: coding video for some old Sony

Erik Dobák
well Kieran it was a good idea but according to my small statistics it is
not related to FPS or resolution. here read my mplayer output of 3 videos
failing followed by 3 videos playing well:

---3 following are giving 'Playback not available' on the Sony Bravia i
have.

Playing catch22.avi.
libavformat version 58.20.100 (external)
Mismatching header version 58.12.100
AVI file format detected.
[aviheader] Video stream found, -vid 0
[aviheader] Audio stream found, -aid 1
VIDEO:  [xvid]  624x272  24bpp  25.000 fps  1000.0 kbps (122.1 kbyte/s)
==========================================================================
Opening video decoder: [ffmpeg] FFmpeg's libavcodec codec family
libavcodec version 58.35.100 (external)
Mismatching header version 58.18.100
Selected video codec: [ffodivx] vfm: ffmpeg (FFmpeg MPEG-4)
==========================================================================
Clip info:
 Software: Lavf58.20.100
Load subtitles in ./
==========================================================================
Opening audio decoder: [mpg123] MPEG 1.0/2.0/2.5 layers I, II, III
AUDIO: 48000 Hz, 2 ch, s16le, 32.0 kbit/2.08% (ratio: 4000->192000)
Selected audio codec: [mpg123] afm: mpg123 (MPEG 1.0/2.0/2.5 layers I, II,
III)
==========================================================================
AO: [pulse] 48000Hz 2ch s16le (2 bytes per sample)
Starting playback...
Movie-Aspect is 2.29:1 - prescaling to correct movie aspect.
VO: [vdpau] 624x272 => 624x272 Planar YV12
Movie-Aspect is 2.29:1 - prescaling to correct movie aspect.
VO: [vdpau] 624x272 => 624x272 Planar YV12
A:   1.5 V:   1.5 A-V:  0.000 ct:  0.000  38/ 38  5%  2%  0.2% 0 0
No bind found for key 'CTRL-c'.
A:   2.5 V:   2.5 A-V:  0.000 ct:  0.000  63/ 63  4%  1%  0.2% 0 0

Playing 0301_Eels.avi.
libavformat version 58.20.100 (external)
Mismatching header version 58.12.100
AVI file format detected.
[aviheader] Video stream found, -vid 0
[aviheader] Audio stream found, -aid 1
VIDEO:  [xvid]  720x576  24bpp  25.000 fps  1000.8 kbps (122.2 kbyte/s)
==========================================================================
Opening video decoder: [ffmpeg] FFmpeg's libavcodec codec family
libavcodec version 58.35.100 (external)
Mismatching header version 58.18.100
Selected video codec: [ffodivx] vfm: ffmpeg (FFmpeg MPEG-4)
==========================================================================
Clip info:
 Artist: The Mighty Boosh
 Comments: New series. Naboo and Bollo go on the Head Shaman's stag do,
leaving Howard and Vince in charge of the Nabootique. Stocked up with their
latest fads, Elbow Patches and The Indie Celebrity Radar, the pair
challenge one another to a sales contest. Thin
 Genre: TV Shows
 Title: Eels
 Software: Lavf57.83.100
Load subtitles in ./
==========================================================================
Opening audio decoder: [mpg123] MPEG 1.0/2.0/2.5 layers I, II, III
AUDIO: 48000 Hz, 2 ch, s16le, 320.0 kbit/20.83% (ratio: 40000->192000)
Selected audio codec: [mpg123] afm: mpg123 (MPEG 1.0/2.0/2.5 layers I, II,
III)
==========================================================================
AO: [pulse] 48000Hz 2ch s16le (2 bytes per sample)
Starting playback...
Movie-Aspect is 1.78:1 - prescaling to correct movie aspect.
VO: [vdpau] 720x576 => 1024x576 Planar YV12
Movie-Aspect is 1.78:1 - prescaling to correct movie aspect.
VO: [vdpau] 720x576 => 1024x576 Planar YV12
A:   4.3 V:   4.3 A-V:  0.000 ct:  0.000 109/109  7%  2%  0.5% 0 0

Playing Life_of_Brian-XviD-.e3aa.avi.
libavformat version 58.20.100 (external)
Mismatching header version 58.12.100
AVI file format detected.
[aviheader] Video stream found, -vid 0
[aviheader] Audio stream found, -aid 1
VIDEO:  [xvid]  448x256  24bpp  23.976 fps  998.5 kbps (121.9 kbyte/s)
==========================================================================
Opening video decoder: [ffmpeg] FFmpeg's libavcodec codec family
libavcodec version 58.35.100 (external)
Mismatching header version 58.18.100
Selected video codec: [ffodivx] vfm: ffmpeg (FFmpeg MPEG-4)
==========================================================================
Clip info:
 Software: Lavf58.20.100
Load subtitles in ./
==========================================================================
Opening audio decoder: [mpg123] MPEG 1.0/2.0/2.5 layers I, II, III
AUDIO: 48000 Hz, 2 ch, s16le, 32.0 kbit/2.08% (ratio: 4000->192000)
Selected audio codec: [mpg123] afm: mpg123 (MPEG 1.0/2.0/2.5 layers I, II,
III)
==========================================================================
AO: [pulse] 48000Hz 2ch s16le (2 bytes per sample)
Starting playback...
Movie-Aspect is 1.75:1 - prescaling to correct movie aspect.
VO: [vdpau] 448x256 => 448x256 Planar YV12
Movie-Aspect is 1.75:1 - prescaling to correct movie aspect.
VO: [vdpau] 448x256 => 448x256 Planar YV12
A:   1.5 V:   1.5 A-V:  0.000 ct:  0.000  37/ 37  3%  2%  0.5% 0 0

---this 3 are playing well.---

Playing
Four.Rooms.1995.DVDrip.XviD.AC3.2CH.CD1-WAF.-shareprovider.com-.e3.avi.
libavformat version 58.20.100 (external)
Mismatching header version 58.12.100
AVI file format detected.
[aviheader] Video stream found, -vid 0
[aviheader] Audio stream found, -aid 1
VIDEO:  [xvid]  736x384  24bpp  23.976 fps  1000.4 kbps (122.1 kbyte/s)
==========================================================================
Opening video decoder: [ffmpeg] FFmpeg's libavcodec codec family
libavcodec version 58.35.100 (external)
Mismatching header version 58.18.100
Selected video codec: [ffodivx] vfm: ffmpeg (FFmpeg MPEG-4)
==========================================================================
Clip info:
 Software: Lavf57.56.101
Load subtitles in ./
==========================================================================
Opening audio decoder: [mpg123] MPEG 1.0/2.0/2.5 layers I, II, III
AUDIO: 48000 Hz, 2 ch, s16le, 192.0 kbit/12.50% (ratio: 24000->192000)
Selected audio codec: [mpg123] afm: mpg123 (MPEG 1.0/2.0/2.5 layers I, II,
III)
==========================================================================
AO: [pulse] 48000Hz 2ch s16le (2 bytes per sample)
Starting playback...
Movie-Aspect is 1.74:1 - prescaling to correct movie aspect.
VO: [vdpau] 736x384 => 736x422 Planar YV12
Movie-Aspect is 1.74:1 - prescaling to correct movie aspect.
VO: [vdpau] 736x384 => 736x422 Planar YV12
A:   1.1 V:   1.1 A-V:  0.000 ct:  0.000  28/ 28  6%  2%  0.6% 0 0

Playing Night_on_Earth_Jim_Jarmusch-1991.avi.
libavformat version 58.20.100 (external)
Mismatching header version 58.12.100
AVI file format detected.
[aviheader] Video stream found, -vid 0
[aviheader] Audio stream found, -aid 1
VIDEO:  [xvid]  640x352  24bpp  25.000 fps  998.9 kbps (121.9 kbyte/s)
==========================================================================
Opening video decoder: [ffmpeg] FFmpeg's libavcodec codec family
libavcodec version 58.35.100 (external)
Mismatching header version 58.18.100
Selected video codec: [ffodivx] vfm: ffmpeg (FFmpeg MPEG-4)
==========================================================================
Clip info:
 Software: Lavf57.83.100
Load subtitles in ./
==========================================================================
Opening audio decoder: [mpg123] MPEG 1.0/2.0/2.5 layers I, II, III
AUDIO: 48000 Hz, 2 ch, s16le, 80.0 kbit/5.21% (ratio: 10000->192000)
Selected audio codec: [mpg123] afm: mpg123 (MPEG 1.0/2.0/2.5 layers I, II,
III)
==========================================================================
AO: [pulse] 48000Hz 2ch s16le (2 bytes per sample)
Starting playback...
Movie-Aspect is undefined - no prescaling applied.
VO: [vdpau] 640x352 => 640x352 Planar YV12
Movie-Aspect is 1.82:1 - prescaling to correct movie aspect.
VO: [vdpau] 640x352 => 640x352 Planar YV12
A:   1.1 V:   1.1 A-V:  0.002 ct:  0.033  28/ 28  4%  3%  0.4% 0 0

Playing Disenchantment.S01E05.avi.
libavformat version 58.20.100 (external)
Mismatching header version 58.12.100
AVI file format detected.
[aviheader] Video stream found, -vid 0
[aviheader] Audio stream found, -aid 1
VIDEO:  [xvid]  1280x720  24bpp  23.976 fps  999.9 kbps (122.1 kbyte/s)
==========================================================================
Opening video decoder: [ffmpeg] FFmpeg's libavcodec codec family
libavcodec version 58.35.100 (external)
Mismatching header version 58.18.100
Selected video codec: [ffodivx] vfm: ffmpeg (FFmpeg MPEG-4)
==========================================================================
Clip info:
 Title: xxx
 Software: Lavf57.83.100
Load subtitles in ./
==========================================================================
Opening audio decoder: [mpg123] MPEG 1.0/2.0/2.5 layers I, II, III
AUDIO: 44100 Hz, 2 ch, s16le, 32.0 kbit/2.27% (ratio: 4000->176400)
Selected audio codec: [mpg123] afm: mpg123 (MPEG 1.0/2.0/2.5 layers I, II,
III)
==========================================================================
AO: [pulse] 44100Hz 2ch s16le (2 bytes per sample)
Starting playback...
Movie-Aspect is 1.78:1 - prescaling to correct movie aspect.
VO: [vdpau] 1280x720 => 1280x720 Planar YV12
Movie-Aspect is 1.78:1 - prescaling to correct movie aspect.
VO: [vdpau] 1280x720 => 1280x720 Planar YV12
A:   1.5 V:   1.5 A-V:  0.000 ct:  0.000  37/ 37 10%  4%  0.3% 0 0

On Thu, 8 Aug 2019 at 22:18, Kieran O Leary <[hidden email]>
wrote:

> On Thu, 8 Aug 2019, 20:25 Erik Dobák, <[hidden email]> wrote:
>
> > that is great idea thank you will check specific videos next day. got to
> go
> > to bed.
> >
>
>
> Good night Erik,
>
> Best,
>
> Kieran.
> _______________________________________________
> ffmpeg-user mailing list
> [hidden email]
> https://ffmpeg.org/mailman/listinfo/ffmpeg-user
>
> To unsubscribe, visit link above, or email
> [hidden email] with subject "unsubscribe".
_______________________________________________
ffmpeg-user mailing list
[hidden email]
https://ffmpeg.org/mailman/listinfo/ffmpeg-user

To unsubscribe, visit link above, or email
[hidden email] with subject "unsubscribe".
Reply | Threaded
Open this post in threaded view
|

Re: coding video for some old Sony

Carl Eugen Hoyos-2
Am Fr., 9. Aug. 2019 um 22:32 Uhr schrieb Erik Dobák <[hidden email]>:
>
> well Kieran it was a good idea but according to my small statistics it is
> not related to FPS or resolution. here read my mplayer output of 3 videos
> failing followed by 3 videos playing well:
>
> ---3 following are giving 'Playback not available' on the Sony Bravia i
> have.

Instead please provide the ffmpeg command lines including their
complete, uncut console output both when converting to working
and broken files.
Also try the native mpeg4 encoder (that is - contrary to the xvid
encoder - supported here), you probably have to disable b frames
and global motion compensation.

Carl Eugen
_______________________________________________
ffmpeg-user mailing list
[hidden email]
https://ffmpeg.org/mailman/listinfo/ffmpeg-user

To unsubscribe, visit link above, or email
[hidden email] with subject "unsubscribe".
Reply | Threaded
Open this post in threaded view
|

Re: coding video for some old Sony

Erik Dobák
Dear Carl,

i have run now ffmpeg -h to see what could be the ffmpeg you need but have
no clue. what would be the ffmpeg command in detail that i have to run on
those files to get the output you need?

e

On Fri, 9 Aug 2019 at 22:45, Carl Eugen Hoyos <[hidden email]> wrote:

> Am Fr., 9. Aug. 2019 um 22:32 Uhr schrieb Erik Dobák <[hidden email]
> >:
> >
> > well Kieran it was a good idea but according to my small statistics it is
> > not related to FPS or resolution. here read my mplayer output of 3 videos
> > failing followed by 3 videos playing well:
> >
> > ---3 following are giving 'Playback not available' on the Sony Bravia i
> > have.
>
> Instead please provide the ffmpeg command lines including their
> complete, uncut console output both when converting to working
> and broken files.
> Also try the native mpeg4 encoder (that is - contrary to the xvid
> encoder - supported here), you probably have to disable b frames
> and global motion compensation.
>
> Carl Eugen
> _______________________________________________
> ffmpeg-user mailing list
> [hidden email]
> https://ffmpeg.org/mailman/listinfo/ffmpeg-user
>
> To unsubscribe, visit link above, or email
> [hidden email] with subject "unsubscribe".
_______________________________________________
ffmpeg-user mailing list
[hidden email]
https://ffmpeg.org/mailman/listinfo/ffmpeg-user

To unsubscribe, visit link above, or email
[hidden email] with subject "unsubscribe".
Reply | Threaded
Open this post in threaded view
|

Re: coding video for some old Sony

Carl Eugen Hoyos-2
Am Fr., 9. Aug. 2019 um 22:51 Uhr schrieb Erik Dobák <[hidden email]>:

> i have run now ffmpeg -h to see what could be the ffmpeg you need but have
> no clue. what would be the ffmpeg command in detail that i have to run on
> those files to get the output you need?

The command line from the first mail in this thread is a good start.

Please do not top-post here, Carl Eugen
_______________________________________________
ffmpeg-user mailing list
[hidden email]
https://ffmpeg.org/mailman/listinfo/ffmpeg-user

To unsubscribe, visit link above, or email
[hidden email] with subject "unsubscribe".
Reply | Threaded
Open this post in threaded view
|

Re: coding video for some old Sony

Erik Dobák
You are a bit picky Carl but here you go:

3 videos that work:

ffmpeg version 4.1.3-1 Copyright (c) 2000-2019 the FFmpeg developers
  built with gcc 8 (Debian 8.3.0-7)
  configuration: --prefix=/usr --extra-version=1 --toolchain=hardened
--libdir=/usr/lib/x86_64-linux-gnu --incdir=/usr/include/x86_64-linux-gnu
--arch=amd64 --enable-gpl --disable-stripping --enable-avresample
--disable-filter=resample --enable-avisynth --enable-gnutls --enable-ladspa
--enable-libaom --enable-libass --enable-libbluray --enable-libbs2b
--enable-libcaca --enable-libcdio --enable-libcodec2 --enable-libflite
--enable-libfontconfig --enable-libfreetype --enable-libfribidi
--enable-libgme --enable-libgsm --enable-libjack --enable-libmp3lame
--enable-libmysofa --enable-libopenjpeg --enable-libopenmpt
--enable-libopus --enable-libpulse --enable-librsvg --enable-librubberband
--enable-libshine --enable-libsnappy --enable-libsoxr --enable-libspeex
--enable-libssh --enable-libtheora --enable-libtwolame --enable-libvidstab
--enable-libvorbis --enable-libvpx --enable-libwavpack --enable-libwebp
--enable-libx265 --enable-libxml2 --enable-libxvid --enable-libzmq
--enable-libzvbi --enable-lv2 --enable-omx --enable-openal --enable-opengl
--enable-sdl2 --enable-libdc1394 --enable-libdrm --enable-libiec61883
--enable-chromaprint --enable-frei0r --enable-libx264 --enable-shared
  libavutil      56. 22.100 / 56. 22.100
  libavcodec     58. 35.100 / 58. 35.100
  libavformat    58. 20.100 / 58. 20.100
  libavdevice    58.  5.100 / 58.  5.100
  libavfilter     7. 40.101 /  7. 40.101
  libavresample   4.  0.  0 /  4.  0.  0
  libswscale      5.  3.100 /  5.  3.100
  libswresample   3.  3.100 /  3.  3.100
  libpostproc    55.  3.100 / 55.  3.100
Input #0, avi, from 'Disenchantment.S01E01.720p.WEB-DL.x264.avi':
  Metadata:
    encoder         : Lavf57.83.100
  Duration: 00:36:10.59, start: 0.000000, bitrate: 1154 kb/s
    Stream #0:0: Video: mpeg4 (Simple Profile) (xvid / 0x64697678),
yuv420p, 1280x720 [SAR 1:1 DAR 16:9], 1001 kb/s, 23.98 fps, 23.98 tbr,
23.98 tbn, 23.98 tbc
    Stream #0:1: Audio: mp3 (U[0][0][0] / 0x0055), 44100 Hz, stereo, fltp,
141 kb/s

ffmpeg version 4.1.3-1 Copyright (c) 2000-2019 the FFmpeg developers
  built with gcc 8 (Debian 8.3.0-7)
  configuration: --prefix=/usr --extra-version=1 --toolchain=hardened
--libdir=/usr/lib/x86_64-linux-gnu --incdir=/usr/include/x86_64-linux-gnu
--arch=amd64 --enable-gpl --disable-stripping --enable-avresample
--disable-filter=resample --enable-avisynth --enable-gnutls --enable-ladspa
--enable-libaom --enable-libass --enable-libbluray --enable-libbs2b
--enable-libcaca --enable-libcdio --enable-libcodec2 --enable-libflite
--enable-libfontconfig --enable-libfreetype --enable-libfribidi
--enable-libgme --enable-libgsm --enable-libjack --enable-libmp3lame
--enable-libmysofa --enable-libopenjpeg --enable-libopenmpt
--enable-libopus --enable-libpulse --enable-librsvg --enable-librubberband
--enable-libshine --enable-libsnappy --enable-libsoxr --enable-libspeex
--enable-libssh --enable-libtheora --enable-libtwolame --enable-libvidstab
--enable-libvorbis --enable-libvpx --enable-libwavpack --enable-libwebp
--enable-libx265 --enable-libxml2 --enable-libxvid --enable-libzmq
--enable-libzvbi --enable-lv2 --enable-omx --enable-openal --enable-opengl
--enable-sdl2 --enable-libdc1394 --enable-libdrm --enable-libiec61883
--enable-chromaprint --enable-frei0r --enable-libx264 --enable-shared
  libavutil      56. 22.100 / 56. 22.100
  libavcodec     58. 35.100 / 58. 35.100
  libavformat    58. 20.100 / 58. 20.100
  libavdevice    58.  5.100 / 58.  5.100
  libavfilter     7. 40.101 /  7. 40.101
  libavresample   4.  0.  0 /  4.  0.  0
  libswscale      5.  3.100 /  5.  3.100
  libswresample   3.  3.100 /  3.  3.100
  libpostproc    55.  3.100 / 55.  3.100
Input #0, avi, from
'Monty_Python_s_The_Meaning_Of_Life-1983-Directors_Cut.avi':
  Metadata:
    encoder         : Lavf57.83.100
  Duration: 01:35:50.92, start: 0.000000, bitrate: 1162 kb/s
    Stream #0:0: Video: mpeg4 (Simple Profile) (xvid / 0x64697678),
yuv420p, 608x336 [SAR 1:1 DAR 38:21], 999 kb/s, 25 fps, 25 tbr, 25 tbn, 25
tbc
    Stream #0:1: Audio: mp3 (U[0][0][0] / 0x0055), 48000 Hz, stereo, fltp,
149 kb/s

ffmpeg version 4.1.3-1 Copyright (c) 2000-2019 the FFmpeg developers
  built with gcc 8 (Debian 8.3.0-7)
  configuration: --prefix=/usr --extra-version=1 --toolchain=hardened
--libdir=/usr/lib/x86_64-linux-gnu --incdir=/usr/include/x86_64-linux-gnu
--arch=amd64 --enable-gpl --disable-stripping --enable-avresample
--disable-filter=resample --enable-avisynth --enable-gnutls --enable-ladspa
--enable-libaom --enable-libass --enable-libbluray --enable-libbs2b
--enable-libcaca --enable-libcdio --enable-libcodec2 --enable-libflite
--enable-libfontconfig --enable-libfreetype --enable-libfribidi
--enable-libgme --enable-libgsm --enable-libjack --enable-libmp3lame
--enable-libmysofa --enable-libopenjpeg --enable-libopenmpt
--enable-libopus --enable-libpulse --enable-librsvg --enable-librubberband
--enable-libshine --enable-libsnappy --enable-libsoxr --enable-libspeex
--enable-libssh --enable-libtheora --enable-libtwolame --enable-libvidstab
--enable-libvorbis --enable-libvpx --enable-libwavpack --enable-libwebp
--enable-libx265 --enable-libxml2 --enable-libxvid --enable-libzmq
--enable-libzvbi --enable-lv2 --enable-omx --enable-openal --enable-opengl
--enable-sdl2 --enable-libdc1394 --enable-libdrm --enable-libiec61883
--enable-chromaprint --enable-frei0r --enable-libx264 --enable-shared
  libavutil      56. 22.100 / 56. 22.100
  libavcodec     58. 35.100 / 58. 35.100
  libavformat    58. 20.100 / 58. 20.100
  libavdevice    58.  5.100 / 58.  5.100
  libavfilter     7. 40.101 /  7. 40.101
  libavresample   4.  0.  0 /  4.  0.  0
  libswscale      5.  3.100 /  5.  3.100
  libswresample   3.  3.100 /  3.  3.100
  libpostproc    55.  3.100 / 55.  3.100
Input #0, avi, from 'Four.Rooms.199ffmpeg version 4.1.3-1 Copyright (c)
2000-2019 the FFmpeg developers
  built with gcc 8 (Debian 8.3.0-7)
  configuration: --prefix=/usr --extra-version=1 --toolchain=hardened
--libdir=/usr/lib/x86_64-linux-gnu --incdir=/usr/include/x86_64-linux-gnu
--arch=amd64 --enable-gpl --disable-stripping --enable-avresample
--disable-filter=resample --enable-avisynth --enable-gnutls --enable-ladspa
--enable-libaom --enable-libass --enable-libbluray --enable-libbs2b
--enable-libcaca --enable-libcdio --enable-libcodec2 --enable-libflite
--enable-libfontconfig --enable-libfreetype --enable-libfribidi
--enable-libgme --enable-libgsm --enable-libjack --enable-libmp3lame
--enable-libmysofa --enable-libopenjpeg --enable-libopenmpt
--enable-libopus --enable-libpulse --enable-librsvg --enable-librubberband
--enable-libshine --enable-libsnappy --enable-libsoxr --enable-libspeex
--enable-libssh --enable-libtheora --enable-libtwolame --enable-libvidstab
--enable-libvorbis --enable-libvpx --enable-libwavpack --enable-libwebp
--enable-libx265 --enable-libxml2 --enable-libxvid --enable-libzmq
--enable-libzvbi --enable-lv2 --enable-omx --enable-openal --enable-opengl
--enable-sdl2 --enable-libdc1394 --enable-libdrm --enable-libiec61883
--enable-chromaprint --enable-frei0r --enable-libx264 --enable-shared
  libavutil      56. 22.100 / 56. 22.100
  libavcodec     58. 35.100 / 58. 35.100
  libavformat    58. 20.100 / 58. 20.100
  libavdevice    58.  5.100 / 58.  5.100
  libavfilter     7. 40.101 /  7. 40.101
  libavresample   4.  0.  0 /  4.  0.  0
  libswscale      5.  3.100 /  5.  3.100
  libswresample   3.  3.100 /  3.  3.100
  libpostproc    55.  3.100 / 55.  3.100
Input #0, avi, from 'catch22.avi':
  Metadata:
    IAS1            : English
    encoder         : Lavf58.20.100
  Duration: 01:56:41.08, start: 0.000000, bitrate: 1164 kb/s
    Stream #0:0: Video: mpeg4 (Simple Profile) (xvid / 0x64697678),
yuv420p, 624x272 [SAR 1:1 DAR 39:17], 1000 kb/s, 25 fps, 25 tbr, 25 tbn, 25
tbc
    Stream #0:1: Audio: mp3 (U[0][0][0] / 0x0055), 48000 Hz, stereo, fltp,
151 kb/s
5.DVDrip.XviD.AC3.2CH.CD1-WAF.avi':

ffmpeg version 4.1.3-1 Copyright (c) 2000-2019 the FFmpeg developers
  built with gcc 8 (Debian 8.3.0-7)
  configuration: --prefix=/usr --extra-version=1 --toolchain=hardened
--libdir=/usr/lib/x86_64-linux-gnu --incdir=/usr/include/x86_64-linux-gnu
--arch=amd64 --enable-gpl --disable-stripping --enable-avresample
--disable-filter=resample --enable-avisynth --enable-gnutls --enable-ladspa
--enable-libaom --enable-libass --enable-libbluray --enable-libbs2b
--enable-libcaca --enable-libcdio --enable-libcodec2 --enable-libflite
--enable-libfontconfig --enable-libfreetype --enable-libfribidi
--enable-libgme --enable-libgsm --enable-libjack --enable-libmp3lame
--enable-libmysofa --enable-libopenjpeg --enable-libopenmpt
--enable-libopus --enable-libpulse --enable-librsvg --enable-librubberband
--enable-libshine --enable-libsnappy --enable-libsoxr --enable-libspeex
--enable-libssh --enable-libtheora --enable-libtwolame --enable-libvidstab
--enable-libvorbis --enable-libvpx --enable-libwavpack --enable-libwebp
--enable-libx265 --enable-libxml2 --enable-libxvid --enable-libzmq
--enable-libzvbi --enable-lv2 --enable-omx --enable-openal --enable-opengl
--enable-sdl2 --enable-libdc1394 --enable-libdrm --enable-libiec61883
--enable-chromaprint --enable-frei0r --enable-libx264 --enable-shared
  libavutil      56. 22.100 / 56. 22.100
  libavcodec     58. 35.100 / 58. 35.100
  libavformat    58. 20.100 / 58. 20.100
  libavdevice    58.  5.100 / 58.  5.100
  libavfilter     7. 40.101 /  7. 40.101
  libavresample   4.  0.  0 /  4.  0.  0
  libswscale      5.  3.100 /  5.  3.100
  libswresample   3.  3.100 /  3.  3.100
  libpostproc    55.  3.100 / 55.  3.100
Input #0, avi, from '0301_Eels.avi':
  Metadata:
    artist          : The Mighty Boosh
    comment         : New series. Naboo and Bollo go on the Head Shaman's
stag do, leaving Howard and Vince in charge of the Nabootique. Stocked up
with their latest fads, Elbow Patches and The Indie Celebrity Radar, the
pair challenge one another to a sales contest. Things go
    genre           : TV Shows
    title           : Eels
    encoder         : Lavf57.83.100
  Duration: 00:28:13.22, start: 0.000000, bitrate: 1183 kb/s
    Stream #0:0: Video: mpeg4 (Simple Profile) (xvid / 0x64697678),
yuv420p, 720x576 [SAR 64:45 DAR 16:9], 1000 kb/s, SAR 42361:29785 DAR
42361:23828, 25 fps, 25 tbr, 25 tbn, 25 tbc
    Stream #0:1: Audio: mp3 (U[0][0][0] / 0x0055), 48000 Hz, stereo, fltp,
169 kb/s

ffmpeg version 4.1.3-1 Copyright (c) 2000-2019 the FFmpeg developers
  built with gcc 8 (Debian 8.3.0-7)
  configuration: --prefix=/usr --extra-version=1 --toolchain=hardened
--libdir=/usr/lib/x86_64-linux-gnu --incdir=/usr/include/x86_64-linux-gnu
--arch=amd64 --enable-gpl --disable-stripping --enable-avresample
--disable-filter=resample --enable-avisynth --enable-gnutls --enable-ladspa
--enable-libaom --enable-libass --enable-libbluray --enable-libbs2b
--enable-libcaca --enable-libcdio --enable-libcodec2 --enable-libflite
--enable-libfontconfig --enable-libfreetype --enable-libfribidi
--enable-libgme --enable-libgsm --enable-libjack --enable-libmp3lame
--enable-libmysofa --enable-libopenjpeg --enable-libopenmpt
--enable-libopus --enable-libpulse --enable-librsvg --enable-librubberband
--enable-libshine --enable-libsnappy --enable-libsoxr --enable-libspeex
--enable-libssh --enable-libtheora --enable-libtwolame --enable-libvidstab
--enable-libvorbis --enable-libvpx --enable-libwavpack --enable-libwebp
--enable-libx265 --enable-libxml2 --enable-libxvid --enable-libzmq
--enable-libzvbi --enable-lv2 --enable-omx --enable-openal --enable-opengl
--enable-sdl2 --enable-libdc1394 --enable-libdrm --enable-libiec61883
--enable-chromaprint --enable-frei0r --enable-libx264 --enable-shared
  libavutil      56. 22.100 / 56. 22.100
  libavcodec     58. 35.100 / 58. 35.100
  libavformat    58. 20.100 / 58. 20.100
  libavdevice    58.  5.100 / 58.  5.100
  libavfilter     7. 40.101 /  7. 40.101
  libavresample   4.  0.  0 /  4.  0.  0
  libswscale      5.  3.100 /  5.  3.100
  libswresample   3.  3.100 /  3.  3.100
  libpostproc    55.  3.100 / 55.  3.100
[mpeg4 @ 0x5627882e4080] Failed to parse extradata
Input #0, avi, from 'Life_of_Brian-XviD-.e3aa.avi':
  Metadata:
    IAS1            : English
    encoder         : Lavf58.20.100
  Duration: 01:33:51.43, start: 0.000000, bitrate: 1192 kb/s
    Stream #0:0: Video: mpeg4 (Simple Profile) (xvid / 0x64697678),
yuv420p, 448x256 [SAR 1:1 DAR 7:4], 998 kb/s, 23.98 fps, 23.98 tbr, 23.98
tbn, 23.98 tbc
    Stream #0:1: Audio: mp3 (U[0][0][0] / 0x0055), 48000 Hz, stereo, fltp,
181 kb/s
At least one output file must be specified

i hope that ffmpeg -i command via the commandline is sufficient for you to
detect what could be the failure. unfortunately the TV just says 'Playback
not available' and the documentation even less..

E
    encoder         : Lavf57.56.101
  Duration: 00:51:52.82, start: 0.000000, bitrate: 1189 kb/s
    Stream #0:0: Video: mpeg4 (Simple Profile) (xvid / 0x64697678),
yuv420p, 736x384 [SAR 10:11 DAR 115:66], 1000 kb/s, 23.98 fps, 23.98 tbr,
23.98 tbn, 23.98 tbc
    Stream #0:1: Audio: mp3 (U[0][0][0] / 0x0055), 48000 Hz, stereo, fltp,
175 kb/s
At least one output file must be specified

and 3 that are not working:



On Fri, 9 Aug 2019 at 22:53, Carl Eugen Hoyos <[hidden email]> wrote:

> Am Fr., 9. Aug. 2019 um 22:51 Uhr schrieb Erik Dobák <[hidden email]
> >:
>
> > i have run now ffmpeg -h to see what could be the ffmpeg you need but
> have
> > no clue. what would be the ffmpeg command in detail that i have to run on
> > those files to get the output you need?
>
> The command line from the first mail in this thread is a good start.
>
> Please do not top-post here, Carl Eugen
> _______________________________________________
> ffmpeg-user mailing list
> [hidden email]
> https://ffmpeg.org/mailman/listinfo/ffmpeg-user
>
> To unsubscribe, visit link above, or email
> [hidden email] with subject "unsubscribe".
_______________________________________________
ffmpeg-user mailing list
[hidden email]
https://ffmpeg.org/mailman/listinfo/ffmpeg-user

To unsubscribe, visit link above, or email
[hidden email] with subject "unsubscribe".
Reply | Threaded
Open this post in threaded view
|

Fwd: coding video for some old Sony

Erik Dobák
sorry for mixing this up. it should be:

playing fine:
Disenchantment.S01E01.720p.WEB-DL.x264.avi
Monty_Python_s_The_Meaning_Of_Life

not playing fine:
catch22
eels
life of Brian

i have checked the output myself but can not see any reason why the 3
should not play fine on the TV. after some interweb reasearch i found some
posts about Sony blocking watermarked videos on their products. it might be
the case here. but that would be beyond the ffmpeg topic i guess.



---------- Forwarded message ---------
From: Erik Dobák <[hidden email]>
Date: Fri, 9 Aug 2019 at 23:04
Subject: Re: [FFmpeg-user] coding video for some old Sony
To: FFmpeg user questions <[hidden email]>


You are a bit picky Carl but here you go:

3 videos that work:

ffmpeg version 4.1.3-1 Copyright (c) 2000-2019 the FFmpeg developers
  built with gcc 8 (Debian 8.3.0-7)
  configuration: --prefix=/usr --extra-version=1 --toolchain=hardened
--libdir=/usr/lib/x86_64-linux-gnu --incdir=/usr/include/x86_64-linux-gnu
--arch=amd64 --enable-gpl --disable-stripping --enable-avresample
--disable-filter=resample --enable-avisynth --enable-gnutls --enable-ladspa
--enable-libaom --enable-libass --enable-libbluray --enable-libbs2b
--enable-libcaca --enable-libcdio --enable-libcodec2 --enable-libflite
--enable-libfontconfig --enable-libfreetype --enable-libfribidi
--enable-libgme --enable-libgsm --enable-libjack --enable-libmp3lame
--enable-libmysofa --enable-libopenjpeg --enable-libopenmpt
--enable-libopus --enable-libpulse --enable-librsvg --enable-librubberband
--enable-libshine --enable-libsnappy --enable-libsoxr --enable-libspeex
--enable-libssh --enable-libtheora --enable-libtwolame --enable-libvidstab
--enable-libvorbis --enable-libvpx --enable-libwavpack --enable-libwebp
--enable-libx265 --enable-libxml2 --enable-libxvid --enable-libzmq
--enable-libzvbi --enable-lv2 --enable-omx --enable-openal --enable-opengl
--enable-sdl2 --enable-libdc1394 --enable-libdrm --enable-libiec61883
--enable-chromaprint --enable-frei0r --enable-libx264 --enable-shared
  libavutil      56. 22.100 / 56. 22.100
  libavcodec     58. 35.100 / 58. 35.100
  libavformat    58. 20.100 / 58. 20.100
  libavdevice    58.  5.100 / 58.  5.100
  libavfilter     7. 40.101 /  7. 40.101
  libavresample   4.  0.  0 /  4.  0.  0
  libswscale      5.  3.100 /  5.  3.100
  libswresample   3.  3.100 /  3.  3.100
  libpostproc    55.  3.100 / 55.  3.100
Input #0, avi, from 'Disenchantment.S01E01.720p.WEB-DL.x264.avi':
  Metadata:
    encoder         : Lavf57.83.100
  Duration: 00:36:10.59, start: 0.000000, bitrate: 1154 kb/s
    Stream #0:0: Video: mpeg4 (Simple Profile) (xvid / 0x64697678),
yuv420p, 1280x720 [SAR 1:1 DAR 16:9], 1001 kb/s, 23.98 fps, 23.98 tbr,
23.98 tbn, 23.98 tbc
    Stream #0:1: Audio: mp3 (U[0][0][0] / 0x0055), 44100 Hz, stereo, fltp,
141 kb/s

ffmpeg version 4.1.3-1 Copyright (c) 2000-2019 the FFmpeg developers
  built with gcc 8 (Debian 8.3.0-7)
  configuration: --prefix=/usr --extra-version=1 --toolchain=hardened
--libdir=/usr/lib/x86_64-linux-gnu --incdir=/usr/include/x86_64-linux-gnu
--arch=amd64 --enable-gpl --disable-stripping --enable-avresample
--disable-filter=resample --enable-avisynth --enable-gnutls --enable-ladspa
--enable-libaom --enable-libass --enable-libbluray --enable-libbs2b
--enable-libcaca --enable-libcdio --enable-libcodec2 --enable-libflite
--enable-libfontconfig --enable-libfreetype --enable-libfribidi
--enable-libgme --enable-libgsm --enable-libjack --enable-libmp3lame
--enable-libmysofa --enable-libopenjpeg --enable-libopenmpt
--enable-libopus --enable-libpulse --enable-librsvg --enable-librubberband
--enable-libshine --enable-libsnappy --enable-libsoxr --enable-libspeex
--enable-libssh --enable-libtheora --enable-libtwolame --enable-libvidstab
--enable-libvorbis --enable-libvpx --enable-libwavpack --enable-libwebp
--enable-libx265 --enable-libxml2 --enable-libxvid --enable-libzmq
--enable-libzvbi --enable-lv2 --enable-omx --enable-openal --enable-opengl
--enable-sdl2 --enable-libdc1394 --enable-libdrm --enable-libiec61883
--enable-chromaprint --enable-frei0r --enable-libx264 --enable-shared
  libavutil      56. 22.100 / 56. 22.100
  libavcodec     58. 35.100 / 58. 35.100
  libavformat    58. 20.100 / 58. 20.100
  libavdevice    58.  5.100 / 58.  5.100
  libavfilter     7. 40.101 /  7. 40.101
  libavresample   4.  0.  0 /  4.  0.  0
  libswscale      5.  3.100 /  5.  3.100
  libswresample   3.  3.100 /  3.  3.100
  libpostproc    55.  3.100 / 55.  3.100
Input #0, avi, from
'Monty_Python_s_The_Meaning_Of_Life-1983-Directors_Cut.avi':
  Metadata:
    encoder         : Lavf57.83.100
  Duration: 01:35:50.92, start: 0.000000, bitrate: 1162 kb/s
    Stream #0:0: Video: mpeg4 (Simple Profile) (xvid / 0x64697678),
yuv420p, 608x336 [SAR 1:1 DAR 38:21], 999 kb/s, 25 fps, 25 tbr, 25 tbn, 25
tbc
    Stream #0:1: Audio: mp3 (U[0][0][0] / 0x0055), 48000 Hz, stereo, fltp,
149 kb/s

ffmpeg version 4.1.3-1 Copyright (c) 2000-2019 the FFmpeg developers
  built with gcc 8 (Debian 8.3.0-7)
  configuration: --prefix=/usr --extra-version=1 --toolchain=hardened
--libdir=/usr/lib/x86_64-linux-gnu --incdir=/usr/include/x86_64-linux-gnu
--arch=amd64 --enable-gpl --disable-stripping --enable-avresample
--disable-filter=resample --enable-avisynth --enable-gnutls --enable-ladspa
--enable-libaom --enable-libass --enable-libbluray --enable-libbs2b
--enable-libcaca --enable-libcdio --enable-libcodec2 --enable-libflite
--enable-libfontconfig --enable-libfreetype --enable-libfribidi
--enable-libgme --enable-libgsm --enable-libjack --enable-libmp3lame
--enable-libmysofa --enable-libopenjpeg --enable-libopenmpt
--enable-libopus --enable-libpulse --enable-librsvg --enable-librubberband
--enable-libshine --enable-libsnappy --enable-libsoxr --enable-libspeex
--enable-libssh --enable-libtheora --enable-libtwolame --enable-libvidstab
--enable-libvorbis --enable-libvpx --enable-libwavpack --enable-libwebp
--enable-libx265 --enable-libxml2 --enable-libxvid --enable-libzmq
--enable-libzvbi --enable-lv2 --enable-omx --enable-openal --enable-opengl
--enable-sdl2 --enable-libdc1394 --enable-libdrm --enable-libiec61883
--enable-chromaprint --enable-frei0r --enable-libx264 --enable-shared
  libavutil      56. 22.100 / 56. 22.100
  libavcodec     58. 35.100 / 58. 35.100
  libavformat    58. 20.100 / 58. 20.100
  libavdevice    58.  5.100 / 58.  5.100
  libavfilter     7. 40.101 /  7. 40.101
  libavresample   4.  0.  0 /  4.  0.  0
  libswscale      5.  3.100 /  5.  3.100
  libswresample   3.  3.100 /  3.  3.100
  libpostproc    55.  3.100 / 55.  3.100
Input #0, avi, from 'catch22.avi':
  Metadata:
    IAS1            : English
    encoder         : Lavf58.20.100
  Duration: 01:56:41.08, start: 0.000000, bitrate: 1164 kb/s
    Stream #0:0: Video: mpeg4 (Simple Profile) (xvid / 0x64697678),
yuv420p, 624x272 [SAR 1:1 DAR 39:17], 1000 kb/s, 25 fps, 25 tbr, 25 tbn, 25
tbc
    Stream #0:1: Audio: mp3 (U[0][0][0] / 0x0055), 48000 Hz, stereo, fltp,
151 kb/s
5.DVDrip.XviD.AC3.2CH.CD1-WAF.avi':

ffmpeg version 4.1.3-1 Copyright (c) 2000-2019 the FFmpeg developers
  built with gcc 8 (Debian 8.3.0-7)
  configuration: --prefix=/usr --extra-version=1 --toolchain=hardened
--libdir=/usr/lib/x86_64-linux-gnu --incdir=/usr/include/x86_64-linux-gnu
--arch=amd64 --enable-gpl --disable-stripping --enable-avresample
--disable-filter=resample --enable-avisynth --enable-gnutls --enable-ladspa
--enable-libaom --enable-libass --enable-libbluray --enable-libbs2b
--enable-libcaca --enable-libcdio --enable-libcodec2 --enable-libflite
--enable-libfontconfig --enable-libfreetype --enable-libfribidi
--enable-libgme --enable-libgsm --enable-libjack --enable-libmp3lame
--enable-libmysofa --enable-libopenjpeg --enable-libopenmpt
--enable-libopus --enable-libpulse --enable-librsvg --enable-librubberband
--enable-libshine --enable-libsnappy --enable-libsoxr --enable-libspeex
--enable-libssh --enable-libtheora --enable-libtwolame --enable-libvidstab
--enable-libvorbis --enable-libvpx --enable-libwavpack --enable-libwebp
--enable-libx265 --enable-libxml2 --enable-libxvid --enable-libzmq
--enable-libzvbi --enable-lv2 --enable-omx --enable-openal --enable-opengl
--enable-sdl2 --enable-libdc1394 --enable-libdrm --enable-libiec61883
--enable-chromaprint --enable-frei0r --enable-libx264 --enable-shared
  libavutil      56. 22.100 / 56. 22.100
  libavcodec     58. 35.100 / 58. 35.100
  libavformat    58. 20.100 / 58. 20.100
  libavdevice    58.  5.100 / 58.  5.100
  libavfilter     7. 40.101 /  7. 40.101
  libavresample   4.  0.  0 /  4.  0.  0
  libswscale      5.  3.100 /  5.  3.100
  libswresample   3.  3.100 /  3.  3.100
  libpostproc    55.  3.100 / 55.  3.100
Input #0, avi, from '0301_Eels.avi':
  Metadata:
    artist          : The Mighty Boosh
    comment         : New series. Naboo and Bollo go on the Head Shaman's
stag do, leaving Howard and Vince in charge of the Nabootique. Stocked up
with their latest fads, Elbow Patches and The Indie Celebrity Radar, the
pair challenge one another to a sales contest. Things go
    genre           : TV Shows
    title           : Eels
    encoder         : Lavf57.83.100
  Duration: 00:28:13.22, start: 0.000000, bitrate: 1183 kb/s
    Stream #0:0: Video: mpeg4 (Simple Profile) (xvid / 0x64697678),
yuv420p, 720x576 [SAR 64:45 DAR 16:9], 1000 kb/s, SAR 42361:29785 DAR
42361:23828, 25 fps, 25 tbr, 25 tbn, 25 tbc
    Stream #0:1: Audio: mp3 (U[0][0][0] / 0x0055), 48000 Hz, stereo, fltp,
169 kb/s

ffmpeg version 4.1.3-1 Copyright (c) 2000-2019 the FFmpeg developers
  built with gcc 8 (Debian 8.3.0-7)
  configuration: --prefix=/usr --extra-version=1 --toolchain=hardened
--libdir=/usr/lib/x86_64-linux-gnu --incdir=/usr/include/x86_64-linux-gnu
--arch=amd64 --enable-gpl --disable-stripping --enable-avresample
--disable-filter=resample --enable-avisynth --enable-gnutls --enable-ladspa
--enable-libaom --enable-libass --enable-libbluray --enable-libbs2b
--enable-libcaca --enable-libcdio --enable-libcodec2 --enable-libflite
--enable-libfontconfig --enable-libfreetype --enable-libfribidi
--enable-libgme --enable-libgsm --enable-libjack --enable-libmp3lame
--enable-libmysofa --enable-libopenjpeg --enable-libopenmpt
--enable-libopus --enable-libpulse --enable-librsvg --enable-librubberband
--enable-libshine --enable-libsnappy --enable-libsoxr --enable-libspeex
--enable-libssh --enable-libtheora --enable-libtwolame --enable-libvidstab
--enable-libvorbis --enable-libvpx --enable-libwavpack --enable-libwebp
--enable-libx265 --enable-libxml2 --enable-libxvid --enable-libzmq
--enable-libzvbi --enable-lv2 --enable-omx --enable-openal --enable-opengl
--enable-sdl2 --enable-libdc1394 --enable-libdrm --enable-libiec61883
--enable-chromaprint --enable-frei0r --enable-libx264 --enable-shared
  libavutil      56. 22.100 / 56. 22.100
  libavcodec     58. 35.100 / 58. 35.100
  libavformat    58. 20.100 / 58. 20.100
  libavdevice    58.  5.100 / 58.  5.100
  libavfilter     7. 40.101 /  7. 40.101
  libavresample   4.  0.  0 /  4.  0.  0
  libswscale      5.  3.100 /  5.  3.100
  libswresample   3.  3.100 /  3.  3.100
  libpostproc    55.  3.100 / 55.  3.100
[mpeg4 @ 0x5627882e4080] Failed to parse extradata
Input #0, avi, from 'Life_of_Brian-XviD-.e3aa.avi':
  Metadata:
    IAS1            : English
    encoder         : Lavf58.20.100
  Duration: 01:33:51.43, start: 0.000000, bitrate: 1192 kb/s
    Stream #0:0: Video: mpeg4 (Simple Profile) (xvid / 0x64697678),
yuv420p, 448x256 [SAR 1:1 DAR 7:4], 998 kb/s, 23.98 fps, 23.98 tbr, 23.98
tbn, 23.98 tbc
    Stream #0:1: Audio: mp3 (U[0][0][0] / 0x0055), 48000 Hz, stereo, fltp,
181 kb/s
At least one output file must be specified

i hope that ffmpeg -i command via the commandline is sufficient for you to
detect what could be the failure. unfortunately the TV just says 'Playback
not available' and the documentation even less..

E
    encoder         : Lavf57.56.101
  Duration: 00:51:52.82, start: 0.000000, bitrate: 1189 kb/s
    Stream #0:0: Video: mpeg4 (Simple Profile) (xvid / 0x64697678),
yuv420p, 736x384 [SAR 10:11 DAR 115:66], 1000 kb/s, 23.98 fps, 23.98 tbr,
23.98 tbn, 23.98 tbc
    Stream #0:1: Audio: mp3 (U[0][0][0] / 0x0055), 48000 Hz, stereo, fltp,
175 kb/s
At least one output file must be specified

and 3 that are not working:



On Fri, 9 Aug 2019 at 22:53, Carl Eugen Hoyos <[hidden email]> wrote:

> Am Fr., 9. Aug. 2019 um 22:51 Uhr schrieb Erik Dobák <[hidden email]
> >:
>
> > i have run now ffmpeg -h to see what could be the ffmpeg you need but
> have
> > no clue. what would be the ffmpeg command in detail that i have to run on
> > those files to get the output you need?
>
> The command line from the first mail in this thread is a good start.
>
> Please do not top-post here, Carl Eugen
> _______________________________________________
> ffmpeg-user mailing list
> [hidden email]
> https://ffmpeg.org/mailman/listinfo/ffmpeg-user
>
> To unsubscribe, visit link above, or email
> [hidden email] with subject "unsubscribe".
_______________________________________________
ffmpeg-user mailing list
[hidden email]
https://ffmpeg.org/mailman/listinfo/ffmpeg-user

To unsubscribe, visit link above, or email
[hidden email] with subject "unsubscribe".
Reply | Threaded
Open this post in threaded view
|

Re: Fwd: coding video for some old Sony

Carl Eugen Hoyos-2
Am Mo., 12. Aug. 2019 um 18:54 Uhr schrieb Erik Dobák <[hidden email]>:

>
> sorry for mixing this up. it should be:
>
> playing fine:
> Disenchantment.S01E01.720p.WEB-DL.x264.avi
> Monty_Python_s_The_Meaning_Of_Life
>
> not playing fine:
> catch22
> eels
> life of Brian

That does not make the mail significantly more readable.

It appears that this is a resolution or aspect ratio issue,
feel free to post the command lines including complete,
uncut console output of current FFmpeg git head with
different resolutions.

As said, global motion compensation may also be relevant.

> i have checked the output myself but can not see any reason why the 3
> should not play fine on the TV. after some interweb reasearch i found some
> posts about Sony blocking watermarked videos on their products. it might be
> the case here. but that would be beyond the ffmpeg topic i guess.

This is very, very unlikely, even more so for re-encoded videos.

Please find out what top-posting means and avoid it here.

Carl Eugen
_______________________________________________
ffmpeg-user mailing list
[hidden email]
https://ffmpeg.org/mailman/listinfo/ffmpeg-user

To unsubscribe, visit link above, or email
[hidden email] with subject "unsubscribe".
Reply | Threaded
Open this post in threaded view
|

Re: top posting – was: coding video for some old Sony

Ulf Zibis

Am 13.08.19 um 12:00 schrieb Carl Eugen Hoyos:
> Please find out what top-posting means and avoid it here.
As I too needed some time to understand, what you mean by this, here is
the explanation:

https://en.wikipedia.org/wiki/Posting_style#Top-posting

My first understanding was: "Do not post a new question on top of an
existing post/therad"

So please give a little more help on that term. Not all people here are
native speakers and searching this term on non-english web results in
irritation often. In German Wikipedia e. g. there are no equivalents.

-Ulf

_______________________________________________
ffmpeg-user mailing list
[hidden email]
https://ffmpeg.org/mailman/listinfo/ffmpeg-user

To unsubscribe, visit link above, or email
[hidden email] with subject "unsubscribe".
Reply | Threaded
Open this post in threaded view
|

Re: top posting – was: coding video for some old Sony

Erik Dobák
On Tue, 13 Aug 2019 at 13:39, Ulf Zibis <[hidden email]> wrote:

>
> Am 13.08.19 um 12:00 schrieb Carl Eugen Hoyos:
> > Please find out what top-posting means and avoid it here.
> As I too needed some time to understand, what you mean by this, here is
> the explanation:
>
> https://en.wikipedia.org/wiki/Posting_style#Top-posting
>
> My first understanding was: "Do not post a new question on top of an
> existing post/therad"
>
> So please give a little more help on that term. Not all people here are
> native speakers and searching this term on non-english web results in
> irritation often. In German Wikipedia e. g. there are no equivalents.
>
> -Ulf
>
> _______________________________________________
> ffmpeg-user mailing list
> [hidden email]
> https://ffmpeg.org/mailman/listinfo/ffmpeg-user
>
> To unsubscribe, visit link above, or email
> [hidden email] with subject "unsubscribe".


Thank you Ulf, now i know what is top-posting.
E
ps: did not know that there are top-posting rasists at ffmpeg :P
_______________________________________________
ffmpeg-user mailing list
[hidden email]
https://ffmpeg.org/mailman/listinfo/ffmpeg-user

To unsubscribe, visit link above, or email
[hidden email] with subject "unsubscribe".
Reply | Threaded
Open this post in threaded view
|

Re: top posting – was: coding video for some old Sony

Carl Eugen Hoyos-2
In reply to this post by Ulf Zibis
Am Di., 13. Aug. 2019 um 13:39 Uhr schrieb Ulf Zibis <[hidden email]>:
>
> In German Wikipedia e. g. there are no equivalents.

That's not true.

Carl Eugen
_______________________________________________
ffmpeg-user mailing list
[hidden email]
https://ffmpeg.org/mailman/listinfo/ffmpeg-user

To unsubscribe, visit link above, or email
[hidden email] with subject "unsubscribe".
Reply | Threaded
Open this post in threaded view
|

Re: top posting

Moritz Barsnick
In reply to this post by Ulf Zibis
On Tue, Aug 13, 2019 at 13:39:37 +0200, Ulf Zibis wrote:
> So please give a little more help on that term.

While I agree, it is easy to google.

*We* should also understand that, AFAIK, Gmail web GUI users have no
clue that they're doing that, as it hides the quote from them. (So I
have often heard.)

> irritation often. In German Wikipedia e. g. there are no equivalents.

https://de.wikipedia.org/wiki/TOFU

Gruß,
Moritz
_______________________________________________
ffmpeg-user mailing list
[hidden email]
https://ffmpeg.org/mailman/listinfo/ffmpeg-user

To unsubscribe, visit link above, or email
[hidden email] with subject "unsubscribe".
Reply | Threaded
Open this post in threaded view
|

Re: Fwd: coding video for some old Sony

Ulf Zibis
In reply to this post by Erik Dobák

Am 12.08.19 um 18:46 schrieb Erik Dobák:
> i have checked the output myself but can not see any reason why the 3
> should not play fine on the TV. after some interweb reasearch i found some
> posts about Sony blocking watermarked videos on their products. it might be
> the case here. but that would be beyond the ffmpeg topic i guess.

I can imagine, that there is a chance to alienate the watermark by
rescaling the video or other filtering.

-Ulf

_______________________________________________
ffmpeg-user mailing list
[hidden email]
https://ffmpeg.org/mailman/listinfo/ffmpeg-user

To unsubscribe, visit link above, or email
[hidden email] with subject "unsubscribe".
Reply | Threaded
Open this post in threaded view
|

Re: top posting

Carl Eugen Hoyos-2
In reply to this post by Moritz Barsnick
Am Di., 13. Aug. 2019 um 14:03 Uhr schrieb Moritz Barsnick <[hidden email]>:

> *We* should also understand that, AFAIK, Gmail web GUI users have no
> clue that they're doing that, as it hides the quote from them. (So I
> have often heard.)

I use Gmail web GUI...

Carl Eugen
_______________________________________________
ffmpeg-user mailing list
[hidden email]
https://ffmpeg.org/mailman/listinfo/ffmpeg-user

To unsubscribe, visit link above, or email
[hidden email] with subject "unsubscribe".
Reply | Threaded
Open this post in threaded view
|

Re: Fwd: coding video for some old Sony

Moritz Barsnick
In reply to this post by Ulf Zibis
On Tue, Aug 13, 2019 at 14:03:31 +0200, Ulf Zibis wrote:
> I can imagine, that there is a chance to alienate the watermark by
> rescaling the video or other filtering.

"Real" watermarking should be resistent to this, upto the point that
you need to "ruin" the video (or audio, for that matter) to get rid of
it.

OTOH, I agree that it is unlikely that a "quite" old TV set implements
this. I even doubt that you find any consumer hardware which refuses to
play this. AFAIU the watermark is for detecting piracy, not preventing
it (but I may be totally wrong!).

Moritz
_______________________________________________
ffmpeg-user mailing list
[hidden email]
https://ffmpeg.org/mailman/listinfo/ffmpeg-user

To unsubscribe, visit link above, or email
[hidden email] with subject "unsubscribe".
123