TrueHD Issues/Remux

classic Classic list List threaded Threaded
7 messages Options
Reply | Threaded
Open this post in threaded view
|

TrueHD Issues/Remux

FFmpeg-users mailing list
I’m a new user to FFmpeg and having some issues I can’t find answers to.  Here’s what I’ve done I’m trying to accomplish:
1.  I have some 4K DVDs that I made mkv file.  I want to put those in mp4/m4v for playing back on Apple TV.2.  I trying to use FFmpeg to remux to mp4/mv4 so I don’t lose quality of video.  In short, just trying to remux mkv to mp4/m4v
I’m getting the following error when I run this script:  ffmpeg -i /Users/goyo/Movies/Pirates_t00.mkv -codec copy Pirates.mp4I get the following error:[mp4 @ 0x7fa36306aa00] Could not find tag for codec truehd in stream #1, codec not currently supported in containerCould not write header for output file #0 (incorrect codec parameters ?): Invalid argumentStream mapping:  Stream #0:0 -> #0:0 (copy)  Stream #0:1 -> #0:1 (copy)    Last message repeated 1 timesI am not a programmer, just an end user looking for a solution to move my discs to playable storage. Looking for some direction and help.Thanks in advance.
_______________________________________________
ffmpeg-user mailing list
[hidden email]
https://ffmpeg.org/mailman/listinfo/ffmpeg-user

To unsubscribe, visit link above, or email
[hidden email] with subject "unsubscribe".
Reply | Threaded
Open this post in threaded view
|

Re: TrueHD Issues/Remux

Carl Zwanzig
On 5/17/2020 8:12 AM, Ed Warner via ffmpeg-user wrote:
> I’m a new user to FFmpeg and having some issues I can’t find answers to.  Here’s what I’ve done I’m trying to accomplish:

Ed, a couple of standard things-
Please post the complete unedited command output w/ the command line, it
contains valuable debugging info.

Use the latest build for your platform (not the latest from whatever distro
you're using); look in https://ffmpeg.org/download.html for a pointer. The
only "supported" one is the "git head" which for most purposes is last
night's build. (I suspect you're using an older build, here.)

It looks like your email client is posting in HTML, please turn that off
when posting here. Also, do not "top post" replies.
(https://ffmpeg.org/mailing-list-faq.html)

In theory and from what I can tell, the MP4 container does support TrueHD
codec, but...

z!

_______________________________________________
ffmpeg-user mailing list
[hidden email]
https://ffmpeg.org/mailman/listinfo/ffmpeg-user

To unsubscribe, visit link above, or email
[hidden email] with subject "unsubscribe".
Reply | Threaded
Open this post in threaded view
|

Re: TrueHD Issues/Remux

Nomis101 🐝
In reply to this post by FFmpeg-users mailing list
Am 17.05.20 um 17:12 schrieb Ed Warner via ffmpeg-user:

> I’m a new user to FFmpeg and having some issues I can’t find answers to.  Here’s what I’ve done I’m trying to accomplish:
> 1.  I have some 4K DVDs that I made mkv file.  I want to put those in mp4/m4v for playing back on Apple TV.2.  I trying to use FFmpeg to remux to mp4/mv4 so I don’t lose quality of video.  In short, just trying to remux mkv to mp4/m4v
> I’m getting the following error when I run this script:  ffmpeg -i /Users/goyo/Movies/Pirates_t00.mkv -codec copy Pirates.mp4I get the following error:[mp4 @ 0x7fa36306aa00] Could not find tag for codec truehd in stream #1, codec not currently supported in containerCould not write header for output file #0 (incorrect codec parameters ?): Invalid argumentStream mapping:  Stream #0:0 -> #0:0 (copy)  Stream #0:1 -> #0:1 (copy)    Last message repeated 1 timesI am not a programmer, just an end user looking for a solution to move my discs to playable storage. Looking for some direction and help.Thanks in advance.
> _______________________________________________
> ffmpeg-user mailing list
> [hidden email]
> https://ffmpeg.org/mailman/listinfo/ffmpeg-user
>
> To unsubscribe, visit link above, or email
> [hidden email] with subject "unsubscribe".
>

If you want to mux TrueHD into MP4, you need the latest developer version of FFmpeg, because experimental support for that was just recently added. Because it is
experimental, you also need to add "-strict -2". But, there is currently no hardware supporting this, so AppleTV will not be able to play the resulting file. For
AppleTV I recommend converting the audio stream to E-AC3 instead.

_______________________________________________
ffmpeg-user mailing list
[hidden email]
https://ffmpeg.org/mailman/listinfo/ffmpeg-user

To unsubscribe, visit link above, or email
[hidden email] with subject "unsubscribe".
Reply | Threaded
Open this post in threaded view
|

Re: TrueHD Issues/Remux

FFmpeg-users mailing list
In reply to this post by Carl Zwanzig

On Sunday, May 17, 2020, 12:13:12 PM EDT, Carl Zwanzig <[hidden email]> wrote:

On 5/17/2020 8:12 AM, Ed Warner via ffmpeg-user wrote:
> I’m a new user to FFmpeg and having some issues I can’t find answers to.  Here’s what I’ve done I’m trying to accomplish:

> Ed, a couple of standard things-
> Please post the complete unedited command output w/ the command line, it
> contains valuable debugging info.

Here is the complete command line and output.

shimpaku@Mac-Pro ~ % ffmpeg -i /Users/shimpaku/Movies/Harry_t00.mkv -c copy Harry.m4v
ffmpeg version 4.2.2 Copyright (c) 2000-2019 the FFmpeg developers
  built with Apple clang version 11.0.3 (clang-1103.0.32.59)
  configuration: --prefix=/usr/local/Cellar/ffmpeg/4.2.2_3 --enable-shared --enable-pthreads --enable-version3 --enable-avresample --cc=clang --host-cflags=-fno-stack-check --host-ldflags= --enable-ffplay --enable-gnutls --enable-gpl --enable-libaom --enable-libbluray --enable-libmp3lame --enable-libopus --enable-librubberband --enable-libsnappy --enable-libsrt --enable-libtesseract --enable-libtheora --enable-libvidstab --enable-libvorbis --enable-libvpx --enable-libwebp --enable-libx264 --enable-libx265 --enable-libxvid --enable-lzma --enable-libfontconfig --enable-libfreetype --enable-frei0r --enable-libass --enable-libopencore-amrnb --enable-libopencore-amrwb --enable-libopenjpeg --enable-librtmp --enable-libspeex --enable-libsoxr --enable-videotoolbox --disable-libjack --disable-indev=jack
  libavutil 56. 31.100 / 56. 31.100
  libavcodec 58. 54.100 / 58. 54.100
  libavformat 58. 29.100 / 58. 29.100
  libavdevice 58. 8.100 / 58. 8.100
  libavfilter 7. 57.100 / 7. 57.100
  libavresample 4. 0. 0 / 4. 0. 0
  libswscale 5. 5.100 / 5. 5.100
  libswresample 3. 5.100 / 3. 5.100
  libpostproc 55. 5.100 / 55. 5.100
Input #0, matroska,webm, from '/Users/shimpaku/Movies/Harry_t00.mkv':
  Metadata:
  title : Harry Potter and the Sorcerer's Stone
  encoder : libmakemkv v1.15.1 (1.3.5/1.4.7) darwin(x64-release)
  creation_time : 2020-05-18T18:12:51.000000Z
  Duration: 02:32:21.34, start: 0.000000, bitrate: 66985 kb/s
  Chapter #0:0: start 0.000000, end 244.869625
  Metadata:
  title : Chapter 01
  Chapter #0:1: start 244.869625, end 490.781958
  Metadata:
  title : Chapter 02
  Chapter #0:2: start 490.781958, end 736.819417
  Metadata:
  title : Chapter 03
  Chapter #0:3: start 736.819417, end 1104.812042
  Metadata:
  title : Chapter 04
  Chapter #0:4: start 1104.812042, end 1303.260292
  Metadata:
  title : Chapter 05
  Chapter #0:5: start 1303.260292, end 1481.271458
  Metadata:
  title : Chapter 06
  Chapter #0:6: start 1481.271458, end 1729.102375
  Metadata:
  title : Chapter 07
  Chapter #0:7: start 1729.102375, end 1864.571042
  Metadata:
  title : Chapter 08
  Chapter #0:8: start 1864.571042, end 2045.168125
  Metadata:
  title : Chapter 09
  Chapter #0:9: start 2045.168125, end 2269.141875
  Metadata:
  title : Chapter 10
  Chapter #0:10: start 2269.141875, end 2489.069917
  Metadata:
  title : Chapter 11
  Chapter #0:11: start 2489.069917, end 2773.061958
  Metadata:
  title : Chapter 12
  Chapter #0:12: start 2773.061958, end 3028.650625
  Metadata:
  title : Chapter 13
  Chapter #0:13: start 3028.650625, end 3303.758792
  Metadata:
  title : Chapter 14
  Chapter #0:14: start 3303.758792, end 3655.151500
  Metadata:
  title : Chapter 15
  Chapter #0:15: start 3655.151500, end 3823.486333
  Metadata:
  title : Chapter 16
  Chapter #0:16: start 3823.486333, end 4067.730333
  Metadata:
  title : Chapter 17
  Chapter #0:17: start 4067.730333, end 4428.799375
  Metadata:
  title : Chapter 18
  Chapter #0:18: start 4428.799375, end 4817.354208
  Metadata:
  title : Chapter 19
  Chapter #0:19: start 4817.354208, end 5034.154125
  Metadata:
  title : Chapter 20
  Chapter #0:20: start 5034.154125, end 5311.806500
  Metadata:
  title : Chapter 21
  Chapter #0:21: start 5311.806500, end 5502.038208
  Metadata:
  title : Chapter 22
  Chapter #0:22: start 5502.038208, end 5802.213083
  Metadata:
  title : Chapter 23
  Chapter #0:23: start 5802.213083, end 6154.439958
  Metadata:
  title : Chapter 24
  Chapter #0:24: start 6154.439958, end 6544.496292
  Metadata:
  title : Chapter 25
  Chapter #0:25: start 6544.496292, end 6801.002542
  Metadata:
  title : Chapter 26
  Chapter #0:26: start 6801.002542, end 7089.290542
  Metadata:
  title : Chapter 27
  Chapter #0:27: start 7089.290542, end 7424.375292
  Metadata:
  title : Chapter 28
  Chapter #0:28: start 7424.375292, end 7615.691417
  Metadata:
  title : Chapter 29
  Chapter #0:29: start 7615.691417, end 7854.930417
  Metadata:
  title : Chapter 30
  Chapter #0:30: start 7854.930417, end 8058.341958
  Metadata:
  title : Chapter 31
  Chapter #0:31: start 8058.341958, end 8249.115875
  Metadata:
  title : Chapter 32
  Chapter #0:32: start 8249.115875, end 8503.995500
  Metadata:
  title : Chapter 33
  Chapter #0:33: start 8503.995500, end 8652.393750
  Metadata:
  title : Chapter 34
  Chapter #0:34: start 8652.393750, end 9141.344000
  Metadata:
  title : Chapter 35
  Stream #0:0(eng): Video: hevc (Main 10), yuv420p10le(tv, bt2020nc/bt2020/smpte2084), 3840x2160 [SAR 1:1 DAR 16:9], 23.98 fps, 23.98 tbr, 1k tbn, 23.98 tbc
  Metadata:
  BPS-eng : 60681769
  DURATION-eng : 02:32:21.340541666
  NUMBER_OF_FRAMES-eng: 219173
  NUMBER_OF_BYTES-eng: 69339085496
  SOURCE_ID-eng : 001011
  _STATISTICS_WRITING_APP-eng: MakeMKV v1.15.1 darwin(x64-release)
  _STATISTICS_WRITING_DATE_UTC-eng: 2020-05-18 18:12:51
  _STATISTICS_TAGS-eng: BPS DURATION NUMBER_OF_FRAMES NUMBER_OF_BYTES SOURCE_ID
  Stream #0:1(eng): Audio: dts (DTS-HD MA), 48000 Hz, 7.1, s32p (24 bit) (default)
  Metadata:
  title : Surround 7.1
  BPS-eng : 4341827
  DURATION-eng : 02:32:21.344000000
  NUMBER_OF_FRAMES-eng: 857001
  NUMBER_OF_BYTES-eng: 4961267216
  SOURCE_ID-eng : 001100
  _STATISTICS_WRITING_APP-eng: MakeMKV v1.15.1 darwin(x64-release)
  _STATISTICS_WRITING_DATE_UTC-eng: 2020-05-18 18:12:51
  _STATISTICS_TAGS-eng: BPS DURATION NUMBER_OF_FRAMES NUMBER_OF_BYTES SOURCE_ID
  Stream #0:2(eng): Audio: dts (DTS), 48000 Hz, 5.1(side), fltp, 1536 kb/s
  Metadata:
  title : Surround 5.1
  BPS-eng : 1509000
  DURATION-eng : 02:32:21.344000000
  NUMBER_OF_FRAMES-eng: 857001
  NUMBER_OF_BYTES-eng: 1724286012
  SOURCE_ID-eng : 001100
  _STATISTICS_WRITING_APP-eng: MakeMKV v1.15.1 darwin(x64-release)
  _STATISTICS_WRITING_DATE_UTC-eng: 2020-05-18 18:12:51
  _STATISTICS_TAGS-eng: BPS DURATION NUMBER_OF_FRAMES NUMBER_OF_BYTES SOURCE_ID
  Stream #0:3(eng): Audio: ac3, 48000 Hz, 5.1(side), fltp, 448 kb/s
  Metadata:
  title : Surround 5.1
  BPS-eng : 448000
  DURATION-eng : 02:32:21.344000000
  NUMBER_OF_FRAMES-eng: 285667
  NUMBER_OF_BYTES-eng: 511915264
  SOURCE_ID-eng : 001101
  _STATISTICS_WRITING_APP-eng: MakeMKV v1.15.1 darwin(x64-release)
  _STATISTICS_WRITING_DATE_UTC-eng: 2020-05-18 18:12:51
  _STATISTICS_TAGS-eng: BPS DURATION NUMBER_OF_FRAMES NUMBER_OF_BYTES SOURCE_ID
[ipod @ 0x7ffc7582d600] Could not find tag for codec hevc in stream #0, codec not currently supported in container
Could not write header for output file #0 (incorrect codec parameters ?): Invalid argument
Stream mapping:
  Stream #0:0 -> #0:0 (copy)
  Stream #0:1 -> #0:1 (copy)
  Last message repeated 1 times

>Use the latest build for your platform (not the latest from whatever distro
>you're using); look in https://ffmpeg.org/download.html for a pointer. The
>only "supported" one is the "git head" which for most purposes is last
>night's build. (I suspect you're using an older build, here.)

I'm running a Mac, so I used the build from the "Apple Logo". If not correct, please let me know.


>It looks like your email client is posting in HTML, please turn that off
>when posting here. Also, do not "top post" replies.
>(https://ffmpeg.org/mailing-list-faq.html)

I think I have this fixed. My apologies.  


>In theory and from what I can tell, the MP4 container does support TrueHD
>codec, but...

>z!


_______________________________________________
ffmpeg-user mailing list
[hidden email]
https://ffmpeg.org/mailman/listinfo/ffmpeg-user

To unsubscribe, visit link above, or email
[hidden email] with subject "unsubscribe".
_______________________________________________
ffmpeg-user mailing list
[hidden email]
https://ffmpeg.org/mailman/listinfo/ffmpeg-user

To unsubscribe, visit link above, or email
[hidden email] with subject "unsubscribe".
Reply | Threaded
Open this post in threaded view
|

Re: TrueHD Issues/Remux

Carl Eugen Hoyos-2




> Am 18.05.2020 um 21:22 schrieb Ed Warner via ffmpeg-user <[hidden email]>:
>
> I'm running a Mac, so I used the build from the "Apple Logo". If not correct, please let me know.

Your question is a good example to show why we require everyone asking for support here to first test current FFmpeg git head.

Carl Eugen
_______________________________________________
ffmpeg-user mailing list
[hidden email]
https://ffmpeg.org/mailman/listinfo/ffmpeg-user

To unsubscribe, visit link above, or email
[hidden email] with subject "unsubscribe".
Reply | Threaded
Open this post in threaded view
|

Re: TrueHD Issues/Remux

FFmpeg-users mailing list
On Monday, May 18, 2020, 04:52:37 PM EDT, Carl Eugen Hoyos <[hidden email]> wrote:

> Am 18.05.2020 um 21:22 schrieb Ed Warner via ffmpeg-user <[hidden email]>:
>
> I'm running a Mac, so I used the build from the "Apple Logo". If not correct, please let me know.

>Your question is a good example to show why we require everyone asking for support here to first test current FFmpeg git head.

>Carl Eugen

I think I have the current FFmpeg get head.  As I said, I'm not a programmer.  Here's the output.  Even though there wasn't fatal errors that stopped the process, the movie won't play.
Thanks for your help.

goyomatsu@Eddies-MacBook-Pro ~ % ffmpeg -i /Users/goyomatsu/Movies/Pirates_t00.mkv -c copy -strict -2 /Users/goyomatsu/Movies/Pirates.mp4
ffmpeg version git-2020-05-18-6275a7e Copyright (c) 2000-2020 the FFmpeg developers
  built with Apple clang version 11.0.3 (clang-1103.0.32.59)
  configuration: --prefix=/usr/local/Cellar/ffmpeg/HEAD-6275a7e_4 --enable-shared --enable-pthreads --enable-version3 --enable-avresample --cc=clang --host-cflags=-fno-stack-check --host-ldflags= --enable-ffplay --enable-gnutls --enable-gpl --enable-libaom --enable-libbluray --enable-libmp3lame --enable-libopus --enable-librubberband --enable-libsnappy --enable-libsrt --enable-libtesseract --enable-libtheora --enable-libvidstab --enable-libvorbis --enable-libvpx --enable-libwebp --enable-libx264 --enable-libx265 --enable-libxvid --enable-lzma --enable-libfontconfig --enable-libfreetype --enable-frei0r --enable-libass --enable-libopencore-amrnb --enable-libopencore-amrwb --enable-libopenjpeg --enable-librtmp --enable-libspeex --enable-libsoxr --enable-videotoolbox --disable-libjack --disable-indev=jack
  libavutil 56. 46.100 / 56. 46.100
  libavcodec 58. 84.100 / 58. 84.100
  libavformat 58. 43.100 / 58. 43.100
  libavdevice 58. 9.103 / 58. 9.103
  libavfilter 7. 81.100 / 7. 81.100
  libavresample 4. 0. 0 / 4. 0. 0
  libswscale 5. 6.101 / 5. 6.101
  libswresample 3. 6.100 / 3. 6.100
  libpostproc 55. 6.100 / 55. 6.100
[matroska,webm @ 0x7fc33b80a400] Could not find codec parameters for stream 6 (Subtitle: hdmv_pgs_subtitle (pgssub)): unspecified size
Consider increasing the value for the 'analyzeduration' and 'probesize' options
Guessed Channel Layout for Input Stream #0.3 : 7.1
Input #0, matroska,webm, from '/Users/goyomatsu/Movies/Pirates_t00.mkv':
  Metadata:
  title : Pirates Of The Caribbean: Dead Men Tell No Tales
  encoder : libmakemkv v1.15.1 (1.3.5/1.4.7) darwin(x64-release)
  creation_time : 2020-05-16T20:08:39.000000Z
  Duration: 02:09:06.24, start: 0.000000, bitrate: 59342 kb/s
  Chapter #0:0: start 0.000000, end 349.557542
  Metadata:
  title : Chapter 01
  Chapter #0:1: start 349.557542, end 514.263750
  Metadata:
  title : Chapter 02
  Chapter #0:2: start 514.263750, end 820.861708
  Metadata:
  title : Chapter 03
  Chapter #0:3: start 820.861708, end 989.196542
  Metadata:
  title : Chapter 04
  Chapter #0:4: start 989.196542, end 1353.894208
  Metadata:
  title : Chapter 05
  Chapter #0:5: start 1353.894208, end 1519.309458
  Metadata:
  title : Chapter 06
  Chapter #0:6: start 1519.309458, end 1686.142792
  Metadata:
  title : Chapter 07
  Chapter #0:7: start 1686.142792, end 1901.816583
  Metadata:
  title : Chapter 08
  Chapter #0:8: start 1901.816583, end 2024.856167
  Metadata:
  title : Chapter 09
  Chapter #0:9: start 2024.856167, end 2222.094875
  Metadata:
  title : Chapter 10
  Chapter #0:10: start 2222.094875, end 2547.753542
  Metadata:
  title : Chapter 11
  Chapter #0:11: start 2547.753542, end 2949.112833
  Metadata:
  title : Chapter 12
  Chapter #0:12: start 2949.112833, end 3240.320417
  Metadata:
  title : Chapter 13
  Chapter #0:13: start 3240.320417, end 3439.436000
  Metadata:
  title : Chapter 14
  Chapter #0:14: start 3439.436000, end 3638.760125
  Metadata:
  title : Chapter 15
  Chapter #0:15: start 3638.760125, end 4109.980875
  Metadata:
  title : Chapter 16
  Chapter #0:16: start 4109.980875, end 4317.062750
  Metadata:
  title : Chapter 17
  Chapter #0:17: start 4317.062750, end 4610.981375
  Metadata:
  title : Chapter 18
  Chapter #0:18: start 4610.981375, end 4767.512750
  Metadata:
  title : Chapter 19
  Chapter #0:19: start 4767.512750, end 5104.849750
  Metadata:
  title : Chapter 20
  Chapter #0:20: start 5104.849750, end 5262.215292
  Metadata:
  title : Chapter 21
  Chapter #0:21: start 5262.215292, end 5503.831667
  Metadata:
  title : Chapter 22
  Chapter #0:22: start 5503.831667, end 5902.855292
  Metadata:
  title : Chapter 23
  Chapter #0:23: start 5902.855292, end 6156.817333
  Metadata:
  title : Chapter 24
  Chapter #0:24: start 6156.817333, end 6443.603833
  Metadata:
  title : Chapter 25
  Chapter #0:25: start 6443.603833, end 6778.730292
  Metadata:
  title : Chapter 26
  Chapter #0:26: start 6778.730292, end 7149.976167
  Metadata:
  title : Chapter 27
  Chapter #0:27: start 7149.976167, end 7746.238500
  Metadata:
  title : Chapter 28
  Stream #0:0(eng): Video: hevc (Main 10), yuv420p10le(tv, bt2020nc/bt2020/smpte2084), 3840x2160 [SAR 1:1 DAR 16:9], 23.98 fps, 23.98 tbr, 1k tbn, 23.98 tbc
  Metadata:
  BPS-eng : 47816368
  DURATION-eng : 02:09:06.238500000
  NUMBER_OF_FRAMES-eng: 185724
  NUMBER_OF_BYTES-eng: 46299620951
  SOURCE_ID-eng : 001011
  _STATISTICS_WRITING_APP-eng: MakeMKV v1.15.1 darwin(x64-release)
  _STATISTICS_WRITING_DATE_UTC-eng: 2020-05-16 20:08:39
  _STATISTICS_TAGS-eng: BPS DURATION NUMBER_OF_FRAMES NUMBER_OF_BYTES SOURCE_ID
  Stream #0:1(eng): Audio: truehd, 48000 Hz, 7.1, s32 (24 bit) (default)
  Metadata:
  title : Surround 7.1
  BPS-eng : 8917912
  DURATION-eng : 02:09:06.240000000
  NUMBER_OF_FRAMES-eng: 9295488
  NUMBER_OF_BYTES-eng: 8635036076
  SOURCE_ID-eng : 001100
  _STATISTICS_WRITING_APP-eng: MakeMKV v1.15.1 darwin(x64-release)
  _STATISTICS_WRITING_DATE_UTC-eng: 2020-05-16 20:08:39
  _STATISTICS_TAGS-eng: BPS DURATION NUMBER_OF_FRAMES NUMBER_OF_BYTES SOURCE_ID
  Stream #0:2(eng): Audio: ac3, 48000 Hz, 5.1(side), fltp, 640 kb/s
  Metadata:
  title : Surround 5.1
  BPS-eng : 640000
  DURATION-eng : 02:09:06.240000000
  NUMBER_OF_FRAMES-eng: 242070
  NUMBER_OF_BYTES-eng: 619699200
  SOURCE_ID-eng : 001100
  _STATISTICS_WRITING_APP-eng: MakeMKV v1.15.1 darwin(x64-release)
  _STATISTICS_WRITING_DATE_UTC-eng: 2020-05-16 20:08:39
  _STATISTICS_TAGS-eng: BPS DURATION NUMBER_OF_FRAMES NUMBER_OF_BYTES SOURCE_ID
  Stream #0:3(eng): Audio: eac3, 48000 Hz, 7.1, fltp
  Metadata:
  title : Surround 7.1
  BPS-eng : 1024000
  DURATION-eng : 02:09:06.240000000
  NUMBER_OF_FRAMES-eng: 242070
  NUMBER_OF_BYTES-eng: 991518720
  _STATISTICS_WRITING_APP-eng: MakeMKV v1.15.1 darwin(x64-release)
  _STATISTICS_WRITING_DATE_UTC-eng: 2020-05-16 20:08:39
  _STATISTICS_TAGS-eng: BPS DURATION NUMBER_OF_FRAMES NUMBER_OF_BYTES
  Stream #0:4(eng): Audio: ac3, 48000 Hz, 5.1(side), fltp, 576 kb/s
  Metadata:
  title : Surround 5.1
  BPS-eng : 576000
  DURATION-eng : 02:09:06.240000000
  NUMBER_OF_FRAMES-eng: 242070
  NUMBER_OF_BYTES-eng: 557729280
  SOURCE_ID-eng : 001101
  _STATISTICS_WRITING_APP-eng: MakeMKV v1.15.1 darwin(x64-release)
  _STATISTICS_WRITING_DATE_UTC-eng: 2020-05-16 20:08:39
  _STATISTICS_TAGS-eng: BPS DURATION NUMBER_OF_FRAMES NUMBER_OF_BYTES SOURCE_ID
  Stream #0:5(eng): Audio: ac3, 48000 Hz, stereo, fltp, 320 kb/s
  Metadata:
  title : Stereo
  BPS-eng : 320000
  DURATION-eng : 02:09:06.240000000
  NUMBER_OF_FRAMES-eng: 242070
  NUMBER_OF_BYTES-eng: 309849600
  SOURCE_ID-eng : 001102
  _STATISTICS_WRITING_APP-eng: MakeMKV v1.15.1 darwin(x64-release)
  _STATISTICS_WRITING_DATE_UTC-eng: 2020-05-16 20:08:39
  _STATISTICS_TAGS-eng: BPS DURATION NUMBER_OF_FRAMES NUMBER_OF_BYTES SOURCE_ID
  Stream #0:6(eng): Subtitle: hdmv_pgs_subtitle
  Metadata:
  BPS-eng : 32830
  DURATION-eng : 02:07:54.187354166
  NUMBER_OF_FRAMES-eng: 3544
  NUMBER_OF_BYTES-eng: 31493339
  SOURCE_ID-eng : 0012A0
  _STATISTICS_WRITING_APP-eng: MakeMKV v1.15.1 darwin(x64-release)
  _STATISTICS_WRITING_DATE_UTC-eng: 2020-05-16 20:08:39
  _STATISTICS_TAGS-eng: BPS DURATION NUMBER_OF_FRAMES NUMBER_OF_BYTES SOURCE_ID
Output #0, mp4, to '/Users/goyomatsu/Movies/Pirates.mp4':
  Metadata:
  title : Pirates Of The Caribbean: Dead Men Tell No Tales
  encoder : Lavf58.43.100
  Chapter #0:0: start 0.000000, end 349.557542
  Metadata:
  title : Chapter 01
  Chapter #0:1: start 349.557542, end 514.263750
  Metadata:
  title : Chapter 02
  Chapter #0:2: start 514.263750, end 820.861708
  Metadata:
  title : Chapter 03
  Chapter #0:3: start 820.861708, end 989.196542
  Metadata:
  title : Chapter 04
  Chapter #0:4: start 989.196542, end 1353.894208
  Metadata:
  title : Chapter 05
  Chapter #0:5: start 1353.894208, end 1519.309458
  Metadata:
  title : Chapter 06
  Chapter #0:6: start 1519.309458, end 1686.142792
  Metadata:
  title : Chapter 07
  Chapter #0:7: start 1686.142792, end 1901.816583
  Metadata:
  title : Chapter 08
  Chapter #0:8: start 1901.816583, end 2024.856167
  Metadata:
  title : Chapter 09
  Chapter #0:9: start 2024.856167, end 2222.094875
  Metadata:
  title : Chapter 10
  Chapter #0:10: start 2222.094875, end 2547.753542
  Metadata:
  title : Chapter 11
  Chapter #0:11: start 2547.753542, end 2949.112833
  Metadata:
  title : Chapter 12
  Chapter #0:12: start 2949.112833, end 3240.320417
  Metadata:
  title : Chapter 13
  Chapter #0:13: start 3240.320417, end 3439.436000
  Metadata:
  title : Chapter 14
  Chapter #0:14: start 3439.436000, end 3638.760125
  Metadata:
  title : Chapter 15
  Chapter #0:15: start 3638.760125, end 4109.980875
  Metadata:
  title : Chapter 16
  Chapter #0:16: start 4109.980875, end 4317.062750
  Metadata:
  title : Chapter 17
  Chapter #0:17: start 4317.062750, end 4610.981375
  Metadata:
  title : Chapter 18
  Chapter #0:18: start 4610.981375, end 4767.512750
  Metadata:
  title : Chapter 19
  Chapter #0:19: start 4767.512750, end 5104.849750
  Metadata:
  title : Chapter 20
  Chapter #0:20: start 5104.849750, end 5262.215292
  Metadata:
  title : Chapter 21
  Chapter #0:21: start 5262.215292, end 5503.831667
  Metadata:
  title : Chapter 22
  Chapter #0:22: start 5503.831667, end 5902.855292
  Metadata:
  title : Chapter 23
  Chapter #0:23: start 5902.855292, end 6156.817333
  Metadata:
  title : Chapter 24
  Chapter #0:24: start 6156.817333, end 6443.603833
  Metadata:
  title : Chapter 25
  Chapter #0:25: start 6443.603833, end 6778.730292
  Metadata:
  title : Chapter 26
  Chapter #0:26: start 6778.730292, end 7149.976167
  Metadata:
  title : Chapter 27
  Chapter #0:27: start 7149.976167, end 7746.238500
  Metadata:
  title : Chapter 28
  Stream #0:0(eng): Video: hevc (Main 10) (hev1 / 0x31766568), yuv420p10le(tv, bt2020nc/bt2020/smpte2084), 3840x2160 [SAR 1:1 DAR 16:9], q=2-31, 23.98 fps, 23.98 tbr, 16k tbn, 1k tbc
  Metadata:
  BPS-eng : 47816368
  DURATION-eng : 02:09:06.238500000
  NUMBER_OF_FRAMES-eng: 185724
  NUMBER_OF_BYTES-eng: 46299620951
  SOURCE_ID-eng : 001011
  _STATISTICS_WRITING_APP-eng: MakeMKV v1.15.1 darwin(x64-release)
  _STATISTICS_WRITING_DATE_UTC-eng: 2020-05-16 20:08:39
  _STATISTICS_TAGS-eng: BPS DURATION NUMBER_OF_FRAMES NUMBER_OF_BYTES SOURCE_ID
  Stream #0:1(eng): Audio: truehd (mlpa / 0x61706C6D), 48000 Hz, 7.1, s32 (24 bit) (default)
  Metadata:
  title : Surround 7.1
  BPS-eng : 8917912
  DURATION-eng : 02:09:06.240000000
  NUMBER_OF_FRAMES-eng: 9295488
  NUMBER_OF_BYTES-eng: 8635036076
  SOURCE_ID-eng : 001100
  _STATISTICS_WRITING_APP-eng: MakeMKV v1.15.1 darwin(x64-release)
  _STATISTICS_WRITING_DATE_UTC-eng: 2020-05-16 20:08:39
  _STATISTICS_TAGS-eng: BPS DURATION NUMBER_OF_FRAMES NUMBER_OF_BYTES SOURCE_ID
Stream mapping:
  Stream #0:0 -> #0:0 (copy)
  Stream #0:1 -> #0:1 (copy)
Press [q] to stop, [?] for help
[mp4 @ 0x7fc33c873e00] Timestamps are unset in a packet for stream 1. This is deprecated and will stop working in the future. Fix your code to set the timestamps properly
[mp4 @ 0x7fc33c873e00] Non-monotonous DTS in output stream 0:1; previous: 25867904, current: 25867896; changing to 25867905. This may result in incorrect timestamps in the output file.
[mp4 @ 0x7fc33c873e00] Non-monotonous DTS in output stream 0:1; previous: 28762784, current: 28762776; changing to 28762785. This may result in incorrect timestamps in the output file.
[mp4 @ 0x7fc33c873e00] Non-monotonous DTS in output stream 0:1; previous: 31833776, current: 31833768; changing to 31833777. This may result in incorrect timestamps in the output file.
[mp4 @ 0x7fc33c873e00] Non-monotonous DTS in output stream 0:1; previous: 38382368, current: 38382360; changing to 38382369. This may result in incorrect timestamps in the output file.
[mp4 @ 0x7fc33c873e00] Non-monotonous DTS in output stream 0:1; previous: 39151184, current: 39151176; changing to 39151185. This may result in incorrect timestamps in the output file.
[mp4 @ 0x7fc33c873e00] Non-monotonous DTS in output stream 0:1; previous: 42308288, current: 42308280; changing to 42308289. This may result in incorrect timestamps in the output file.
[mp4 @ 0x7fc33c873e00] Non-monotonous DTS in output stream 0:1; previous: 43147088, current: 43147080; changing to 43147089. This may result in incorrect timestamps in the output file.
[mp4 @ 0x7fc33c873e00] Non-monotonous DTS in output stream 0:1; previous: 46914848, current: 46914840; changing to 46914849. This may result in incorrect timestamps in the output file.
[mp4 @ 0x7fc33c873e00] Non-monotonous DTS in output stream 0:1; previous: 57299216, current: 57299208; changing to 57299217. This may result in incorrect timestamps in the output file.
[mp4 @ 0x7fc33c873e00] Non-monotonous DTS in output stream 0:1; previous: 59765744, current: 59765736; changing to 59765745. This may result in incorrect timestamps in the output file.
[mp4 @ 0x7fc33c873e00] Non-monotonous DTS in output stream 0:1; previous: 65599568, current: 65599560; changing to 65599569. This may result in incorrect timestamps in the output file.
[mp4 @ 0x7fc33c873e00] Non-monotonous DTS in output stream 0:1; previous: 74952944, current: 74952936; changing to 74952945. This may result in incorrect timestamps in the output file.
[mp4 @ 0x7fc33c873e00] Non-monotonous DTS in output stream 0:1; previous: 83014976, current: 83014968; changing to 83014977. This may result in incorrect timestamps in the output file.
[mp4 @ 0x7fc33c873e00] Non-monotonous DTS in output stream 0:1; previous: 101765696, current: 101765688; changing to 101765697. This may result in incorrect timestamps in the output file.
[mp4 @ 0x7fc33c873e00] Non-monotonous DTS in output stream 0:1; previous: 103159088, current: 103159080; changing to 103159089. This may result in incorrect timestamps in the output file.
[mp4 @ 0x7fc33c873e00] Non-monotonous DTS in output stream 0:1; previous: 106576448, current: 106576440; changing to 106576449. This may result in incorrect timestamps in the output file.
[mp4 @ 0x7fc33c873e00] Non-monotonous DTS in output stream 0:1; previous: 108850736, current: 108850728; changing to 108850737. This may result in incorrect timestamps in the output file.
[mp4 @ 0x7fc33c873e00] Non-monotonous DTS in output stream 0:1; previous: 111387248, current: 111387240; changing to 111387249. This may result in incorrect timestamps in the output file.
[mp4 @ 0x7fc33c873e00] Non-monotonous DTS in output stream 0:1; previous: 119455376, current: 119455368; changing to 119455377. This may result in incorrect timestamps in the output file.
[mp4 @ 0x7fc33c873e00] Non-monotonous DTS in output stream 0:1; previous: 127413248, current: 127413240; changing to 127413249. This may result in incorrect timestamps in the output file.
[mp4 @ 0x7fc33c873e00] Non-monotonous DTS in output stream 0:1; previous: 171969776, current: 171969768; changing to 171969777. This may result in incorrect timestamps in the output file.
[mp4 @ 0x7fc33c873e00] Non-monotonous DTS in output stream 0:1; previous: 191781584, current: 191781576; changing to 191781585. This may result in incorrect timestamps in the output file.
[mp4 @ 0x7fc33c873e00] Non-monotonous DTS in output stream 0:1; previous: 192858656, current: 192858648; changing to 192858657. This may result in incorrect timestamps in the output file.
[mp4 @ 0x7fc33c873e00] Non-monotonous DTS in output stream 0:1; previous: 196866656, current: 196866648; changing to 196866657. This may result in incorrect timestamps in the output file.
[mp4 @ 0x7fc33c873e00] Non-monotonous DTS in output stream 0:1; previous: 211393184, current: 211393176; changing to 211393185. This may result in incorrect timestamps in the output file.
[mp4 @ 0x7fc33c873e00] Non-monotonous DTS in output stream 0:1; previous: 250077824, current: 250077816; changing to 250077825. This may result in incorrect timestamps in the output file.
[mp4 @ 0x7fc33c873e00] Non-monotonous DTS in output stream 0:1; previous: 252730544, current: 252730536; changing to 252730545. This may result in incorrect timestamps in the output file.
[mp4 @ 0x7fc33c873e00] Non-monotonous DTS in output stream 0:1; previous: 257146928, current: 257146920; changing to 257146929. This may result in incorrect timestamps in the output file.
[mp4 @ 0x7fc33c873e00] Non-monotonous DTS in output stream 0:1; previous: 258316016, current: 258316008; changing to 258316017. This may result in incorrect timestamps in the output file.
[mp4 @ 0x7fc33c873e00] Non-monotonous DTS in output stream 0:1; previous: 258460256, current: 258460248; changing to 258460257. This may result in incorrect timestamps in the output file.
[mp4 @ 0x7fc33c873e00] Non-monotonous DTS in output stream 0:1; previous: 269353136, current: 269353128; changing to 269353137. This may result in incorrect timestamps in the output file.
[mp4 @ 0x7fc33c873e00] Non-monotonous DTS in output stream 0:1; previous: 297991664, current: 297991656; changing to 297991665. This may result in incorrect timestamps in the output file.
[mp4 @ 0x7fc33c873e00] Non-monotonous DTS in output stream 0:1; previous: 306550304, current: 306550296; changing to 306550305. This may result in incorrect timestamps in the output file.
[mp4 @ 0x7fc33c873e00] Non-monotonous DTS in output stream 0:1; previous: 308703248, current: 308703240; changing to 308703249. This may result in incorrect timestamps in the output file.
[mp4 @ 0x7fc33c873e00] Non-monotonous DTS in output stream 0:1; previous: 308782544, current: 308782536; changing to 308782545. This may result in incorrect timestamps in the output file.
[mp4 @ 0x7fc33c873e00] Non-monotonous DTS in output stream 0:1; previous: 318768416, current: 318768408; changing to 318768417. This may result in incorrect timestamps in the output file.
[mp4 @ 0x7fc33c873e00] Non-monotonous DTS in output stream 0:1; previous: 320521856, current: 320521848; changing to 320521857. This may result in incorrect timestamps in the output file.
[mp4 @ 0x7fc33c873e00] Non-monotonous DTS in output stream 0:1; previous: 329098736, current: 329098728; changing to 329098737. This may result in incorrect timestamps in the output file.
[mp4 @ 0x7fc33c873e00] Non-monotonous DTS in output stream 0:1; previous: 334782416, current: 334782408; changing to 334782417. This may result in incorrect timestamps in the output file.
[mp4 @ 0x7fc33c873e00] Non-monotonous DTS in output stream 0:1; previous: 345553184, current: 345553176; changing to 345553185. This may result in incorrect timestamps in the output file.
[mp4 @ 0x7fc33c873e00] Non-monotonous DTS in output stream 0:1; previous: 349228928, current: 349228920; changing to 349228929. This may result in incorrect timestamps in the output file.
[mp4 @ 0x7fc33c873e00] Non-monotonous DTS in output stream 0:1; previous: 353120816, current: 353120808; changing to 353120817. This may result in incorrect timestamps in the output file.
[mp4 @ 0x7fc33c873e00] Non-monotonous DTS in output stream 0:1; previous: 355042736, current: 355042728; changing to 355042737. This may result in incorrect timestamps in the output file.
[mp4 @ 0x7fc33c873e00] Non-monotonous DTS in output stream 0:1; previous: 357156848, current: 357156840; changing to 357156849. This may result in incorrect timestamps in the output file.
[mp4 @ 0x7fc33c873e00] Non-monotonous DTS in output stream 0:1; previous: 357541184, current: 357541176; changing to 357541185. This may result in incorrect timestamps in the output file.
[mp4 @ 0x7fc33c873e00] Non-monotonous DTS in output stream 0:1; previous: 359367056, current: 359367048; changing to 359367057. This may result in incorrect timestamps in the output file.
frame=185724 fps=765 q=-1.0 Lsize=53694050kB time=02:09:06.23 bitrate=56783.9kbits/s speed=31.9x
video:45214474kB audio:8432652kB subtitle:0kB other streams:0kB global headers:1kB muxing overhead: 0.087468%

___________________________________________
ffmpeg-user mailing list
[hidden email]
https://ffmpeg.org/mailman/listinfo/ffmpeg-user

To unsubscribe, visit link above, or email
[hidden email] with subject "unsubscribe".
_______________________________________________
ffmpeg-user mailing list
[hidden email]
https://ffmpeg.org/mailman/listinfo/ffmpeg-user

To unsubscribe, visit link above, or email
[hidden email] with subject "unsubscribe".
Reply | Threaded
Open this post in threaded view
|

Re: TrueHD Issues/Remux

Carl Eugen Hoyos-2
Am Di., 19. Mai 2020 um 00:46 Uhr schrieb Ed Warner via ffmpeg-user
<[hidden email]>:
>
> On Monday, May 18, 2020, 04:52:37 PM EDT, Carl Eugen Hoyos <[hidden email]> wrote:
>
> > Am 18.05.2020 um 21:22 schrieb Ed Warner via ffmpeg-user <[hidden email]>:
> >
> > I'm running a Mac, so I used the build from the "Apple Logo". If not correct, please let me know.
>
> >Your question is a good example to show why we require everyone asking
> >for support here to first test current FFmpeg git head.

> I think I have the current FFmpeg get head.  As I said, I'm not a programmer.
> Here's the output.  Even though there wasn't fatal errors that stopped the
> process, the movie won't play.

It won't play with ffplay?

I believe you have already been told that nothing else supports TrueHD in mp4
(which is also the reason the feature is experimental: We cannot test it).

Carl Eugen
_______________________________________________
ffmpeg-user mailing list
[hidden email]
https://ffmpeg.org/mailman/listinfo/ffmpeg-user

To unsubscribe, visit link above, or email
[hidden email] with subject "unsubscribe".