Regression Test Error - FFmpeg SVN-r11248

classic Classic list List threaded Threaded
1 message Options
Reply | Threaded
Open this post in threaded view
|

Regression Test Error - FFmpeg SVN-r11248

deadhead
I've  build this morning the latest SVN version, but after an usual
configure and make, the make test failed...

I haven't used any CFLAGS compiling it :

./ffmpeg_g -y -flags +bitexact -dct fastint -idct simple -y -ab 128k -ac 2
-f s16le -i tests/asynth1.sw -acodec wmav2 ./tests/data/a-wmav2.asf
FFmpeg version SVN-r11248, Copyright (c) 2000-2007 Fabrice Bellard, et al.
  configuration: --enable-static --disable-shared --prefix=/usr/local/ffmpeg
--cpu=pentium-m --enable-gpl --enable-pthreads --disable-altivec
--disable-network --disable-ipv6 --enable-libmp3lame --enable-libfaac
--enable-libfaad --disable-debug --disable-mpegaudio-hp
  libavutil version: 49.6.0
  libavcodec version: 51.49.0
  libavformat version: 52.2.0
  built on Dec 17 2007 15:57:44, gcc: 4.1.2 (Gentoo 4.1.2)
    Stream #0.0: Audio: pcm_s16le, 44100 Hz, stereo, 1411 kb/s
    Stream #0.0: Audio: wmav2, 44100 Hz, stereo, 128 kb/s
size=     104kB time=6.0 bitrate= 141.6kbits/s
./ffmpeg_g -y -flags +bitexact -dct fastint -idct simple -y -i
./tests/data/a-wmav2.asf -f wav ./tests/data/out.wav
FFmpeg version SVN-r11248, Copyright (c) 2000-2007 Fabrice Bellard, et al.
  configuration: --enable-static --disable-shared --prefix=/usr/local/ffmpeg
--cpu=pentium-m --enable-gpl --enable-pthreads --disable-altivec
--disable-network --disable-ipv6 --enable-libmp3lame --enable-libfaac
--enable-libfaad --disable-debug --disable-mpegaudio-hp
  libavutil version: 49.6.0
  libavcodec version: 51.49.0
  libavformat version: 52.2.0
  built on Dec 17 2007 15:57:44, gcc: 4.1.2 (Gentoo 4.1.2)
    Stream #0.0: Audio: wmav2, 44100 Hz, stereo, 128 kb/s
    Stream #0.0: Audio: pcm_s16le, 44100 Hz, stereo, 1411 kb/s
size=    1032kB time=6.0 bitrate=1411.3kbits/s
--- ./tests/data/ffmpeg.regression      2007-12-17 16:17:00.944043849 +0100
+++ /usr/src/ffmpeg/tests/ffmpeg.regression.ref 2007-12-17 11:05:
15.000000000 +0100
@@ -167,9 +167,9 @@
 stddev:  2.84 PSNR:39.04 bytes:7602176
 21f8ff9f1daacd9133683bb4ea0f50a4 *./tests/data/a-mp2.mp2
 95712 ./tests/data/a-mp2.mp2
-e7e1df1da044bf67a8cf63faea85cdd2 *./tests/data/out.wav
-stddev:9330.12 PSNR:16.92 bytes:1054720
-stddev:4395.93 PSNR:23.46 bytes:1052672
+83f8df5d5f84480566af548bb037fceb *./tests/data/out.wav
+stddev:9330.70 PSNR:16.92 bytes:1054720
+stddev:4396.13 PSNR:23.46 bytes:1052672
 aefe11ab5067621a1c674859d6413891 *./tests/data/a-ac3.rm
 98203 ./tests/data/a-ac3.rm
 39878597b1d65cce473639a7d8c93b02 *./tests/data/a-g726.wav

Regression test: Error.
make: *** [codectest] Error 1

Let me know if i can give you more info.

cheers

deadhead
_______________________________________________
ffmpeg-user mailing list
[hidden email]
http://lists.mplayerhq.hu/mailman/listinfo/ffmpeg-user