New Overread VUI by 5 bits Warnings when decoding from AVC-Intra from Avid

classic Classic list List threaded Threaded
4 messages Options
Reply | Threaded
Open this post in threaded view
|

New Overread VUI by 5 bits Warnings when decoding from AVC-Intra from Avid

Christoph Gerstbauer-2
Hello,

in the year 2014 I reported a Problem when decoding H264 10bit from
AVCIntra MXF files.
MXF File was created by Premiere:
The old thread:
https://lists.ffmpeg.org/pipermail/ffmpeg-user/2014-May/021213.html

The problem was that the commandline output showed multiple error warnings
with this information: "Overread VUI by 5 bits".
This problem was fixed in 2014. I think it was a demuxer problem.

Now I have the "same" problem with a MXF file from another encoder: AVID.
-> Again "Overread VUI by 5 bits"

By testing with FFMPEG 3.4 we get this:
# May__2014: Decoding AVCIntra MXF made by Premiere: STILL GOOD. No
Warnings, no Errors
# June_2018: Decoding AVCIntra MXF made by AVID: "Overread VUI by 5 bits"

The file from May2014 can be downloaded here: Decoding still without
problems.
https://www.dropbox.com/s/yqtdt1enqt18wjv/ffmpeg__2014_PremierePro--Overread.VUI.by.5.bits.Problem___FIXED.mxf.zip?dl=0

The current problem example file (June2018) can be downloaded here:
https://www.dropbox.com/s/we2fldkgyc9tjq3/ffmpeg__2018_Sample-from-AVIDSystem--Overread.VUI.by.5.bits.Problem___NEW.mxf.zip?dl=0



COMMAND LINE OUTPUT AND USED SYNTAX:

ffmpeg -i "E:\SMC Avid Testfiles
14-05-2018\ffmpeg__2018_Sample-from-AVIDSystem--Overread.VUI.by.5.bits.Problem___NEW.mxf"
-vcodec ffvhuff -acodec pcm_s24le "E:\SMC Avid Testfiles
14-05-2018\ffmpeg__2018_Sample-from-AVIDSystem--Overread.VUI.by.5.bits.Problem___NEW.avi"
ffmpeg version 3.4 Copyright (c) 2000-2017 the FFmpeg developers
  built with gcc 7.2.0 (GCC)
  configuration: --enable-gpl --enable-version3 --enable-sdl2
--enable-bzlib --enable-fontconfig --enable-gnutls --enable-iconv
--enable-libass --enable-libbluray --enable-libfreetype --enable-libmp3lame
--enable-libopenjpeg --enable-libopus --enable-libshine --enable-libsnappy
--enable-libsoxr --enable-libtheora --enable-libtwolame --enable-libvpx
--enable-libwavpack --enable-libwebp --enable-libx264 --enable-libx265
--enable-libxml2 --enable-libzimg --enable-lzma --enable-zlib --enable-gmp
--enable-libvidstab --enable-libvorbis --enable-cuda --enable-cuvid
--enable-d3d11va --enable-nvenc --enable-dxva2 --enable-avisynth
--enable-libmfx
  libavutil      55. 78.100 / 55. 78.100
  libavcodec     57.107.100 / 57.107.100
  libavformat    57. 83.100 / 57. 83.100
  libavdevice    57. 10.100 / 57. 10.100
  libavfilter     6.107.100 /  6.107.100
  libswscale      4.  8.100 /  4.  8.100
  libswresample   2.  9.100 /  2.  9.100
  libpostproc    54.  7.100 / 54.  7.100
[h264 @ 0000017e3a8849e0] Overread VUI by 5 bits
    Last message repeated 5 times
[mxf @ 0000017e3a881ca0] Stream #0: not enough frames to estimate rate;
consider increasing probesize
Guessed Channel Layout for Input Stream #0.1 : mono
Guessed Channel Layout for Input Stream #0.2 : mono
Input #0, mxf, from 'E:\SMC Avid Testfiles
14-05-2018\ffmpeg__2018_Sample-from-AVIDSystem--Overread.VUI.by.5.bits.Problem___NEW.mxf':
  Metadata:
    uid             : 55d17c51-6981-11e8-94b8-0015b2a4ea2f
    generation_uid  : 55d17c52-6981-11e8-8575-0015b2a4ea2f
    company_name    : Avid Technologies, Inc.
    product_name    : Transfer Manager STP DHM
    product_version : 4.0.0.0
    application_platform: win32
    product_uid     : 00000000-0000-0000-0000-000000000000
    modification_date: 2018-06-06T12:01:23.000000Z
    material_package_umid:
0x060A2B340101010501010D12135B1466A5789402758205A2F5FB0015B2A4EA2F
    timecode        : 00:59:59:19
  Duration: 00:00:05.24, start: 0.000000, bitrate: 116154 kb/s
    Stream #0:0: Video: h264 (High 4:2:2 Intra), yuv422p10le(pc, bt709, top
first), 1920x1080 [SAR 1:1 DAR 16:9], 25 fps, 25 tbr, 25 tbn, 50 tbc
    Metadata:
      file_package_umid:
0x060A2B340101010501010D1213A241949B789402758205A2CD8C0015B2A4EA2F
      file_package_name: Source Package
      track_name      : Track 1
    Stream #0:1: Audio: pcm_s24le, 48000 Hz, mono, s32 (24 bit), 1152 kb/s
    Metadata:
      file_package_umid:
0x060A2B340101010501010D1213A241949B789402758205A2CD8C0015B2A4EA2F
      file_package_name: Source Package
      track_name      : Track 2
    Stream #0:2: Audio: pcm_s24le, 48000 Hz, mono, s32 (24 bit), 1152 kb/s
    Metadata:
      file_package_umid:
0x060A2B340101010501010D1213A241949B789402758205A2CD8C0015B2A4EA2F
      file_package_name: Source Package
      track_name      : Track 3
Stream mapping:
  Stream #0:0 -> #0:0 (h264 (native) -> ffvhuff (native))
  Stream #0:1 -> #0:1 (pcm_s24le (native) -> pcm_s24le (native))
Press [q] to stop, [?] for help
[h264 @ 0000017e3ab5d680] Overread VUI by 5 bits
[h264 @ 0000017e3aa17ec0] Overread VUI by 5 bits
[h264 @ 0000017e3aa183a0] Overread VUI by 5 bits
[h264 @ 0000017e3aa166c0] Overread VUI by 5 bits
[h264 @ 0000017e3aa161e0] Overread VUI by 5 bits
[h264 @ 0000017e3aa16b80] Overread VUI by 5 bits
[h264 @ 0000017e3aa17060] Overread VUI by 5 bits
[h264 @ 0000017e3aa17520] Overread VUI by 5 bits
[h264 @ 0000017e3aa18860] Overread VUI by 5 bits
[h264 @ 0000017e3aa18d40] Overread VUI by 5 bits
[h264 @ 0000017e3aa15840] Overread VUI by 5 bits
[h264 @ 0000017e3aa15380] Overread VUI by 5 bits
[h264 @ 0000017e3aa15d20] Overread VUI by 5 bits
[h264 @ 0000017e3aa17a00] Overread VUI by 5 bits
[h264 @ 0000017e3b9df3e0] Overread VUI by 5 bits
Output #0, avi, to 'E:\SMC Avid Testfiles
14-05-2018\ffmpeg__2018_Sample-from-AVIDSystem--Overread.VUI.by.5.bits.Problem___NEW.avi':
  Metadata:
    uid             : 55d17c51-6981-11e8-94b8-0015b2a4ea2f
    generation_uid  : 55d17c52-6981-11e8-8575-0015b2a4ea2f
    company_name    : Avid Technologies, Inc.
    product_name    : Transfer Manager STP DHM
    product_version : 4.0.0.0
    application_platform: win32
    product_uid     : 00000000-0000-0000-0000-000000000000
    modification_date: 2018-06-06T12:01:23.000000Z
    material_package_umid:
0x060A2B340101010501010D12135B1466A5789402758205A2F5FB0015B2A4EA2F
    ISMP            : 00:59:59:19
    ISFT            : Lavf57.83.100
    Stream #0:0: Video: ffvhuff (FFVH / 0x48564646), yuv422p10le, 1920x1080
[SAR 1:1 DAR 16:9], q=2-31, 200 kb/s, 25 fps, 25 tbn, 25 tbc
    Metadata:
      file_package_umid:
0x060A2B340101010501010D1213A241949B789402758205A2CD8C0015B2A4EA2F
      file_package_name: Source Package
      track_name      : Track 1
      encoder         : Lavc57.107.100 ffvhuff
    Stream #0:1: Audio: pcm_s24le ([1][0][0][0] / 0x0001), 48000 Hz, mono,
s32 (24 bit), 1152 kb/s
    Metadata:
      file_package_umid:
0x060A2B340101010501010D1213A241949B789402758205A2CD8C0015B2A4EA2F
      file_package_name: Source Package
      track_name      : Track 2
      encoder         : Lavc57.107.100 pcm_s24le
[h264 @ 0000017e3bca9020] Overread VUI by 5 bits
[h264 @ 0000017e3ab5d680] Overread VUI by 5 bits
[h264 @ 0000017e3aa17ec0] Overread VUI by 5 bits
[h264 @ 0000017e3aa183a0] Overread VUI by 5 bits
[h264 @ 0000017e3aa166c0] Overread VUI by 5 bits
[h264 @ 0000017e3aa161e0] Overread VUI by 5 bits
[h264 @ 0000017e3aa16b80] Overread VUI by 5 bits
[h264 @ 0000017e3aa17060] Overread VUI by 5 bits
[h264 @ 0000017e3aa17520] Overread VUI by 5 bits
[h264 @ 0000017e3aa18860] Overread VUI by 5 bits
[h264 @ 0000017e3aa18d40] Overread VUI by 5 bits
[h264 @ 0000017e3aa15840] Overread VUI by 5 bits
[h264 @ 0000017e3aa15380] Overread VUI by 5 bits
[h264 @ 0000017e3aa15d20] Overread VUI by 5 bits00:00:01.20
bitrate=52496.7kbits/s speed=2.33x
[h264 @ 0000017e3aa17a00] Overread VUI by 5 bits
[h264 @ 0000017e3b9df3e0] Overread VUI by 5 bits
[h264 @ 0000017e3bca9020] Overread VUI by 5 bits
[h264 @ 0000017e3ab5d680] Overread VUI by 5 bits
[h264 @ 0000017e3aa17ec0] Overread VUI by 5 bits
[h264 @ 0000017e3aa183a0] Overread VUI by 5 bits
[h264 @ 0000017e3aa166c0] Overread VUI by 5 bits
[h264 @ 0000017e3aa161e0] Overread VUI by 5 bits
[h264 @ 0000017e3aa16b80] Overread VUI by 5 bits
[h264 @ 0000017e3aa17060] Overread VUI by 5 bits
[h264 @ 0000017e3aa17520] Overread VUI by 5 bits
[h264 @ 0000017e3aa18860] Overread VUI by 5 bits
[h264 @ 0000017e3aa18d40] Overread VUI by 5 bits
[h264 @ 0000017e3aa15840] Overread VUI by 5 bits
[h264 @ 0000017e3aa15380] Overread VUI by 5 bits
[h264 @ 0000017e3aa15d20] Overread VUI by 5 bits
[h264 @ 0000017e3aa17a00] Overread VUI by 5 bits
[h264 @ 0000017e3b9df3e0] Overread VUI by 5 bits
[h264 @ 0000017e3bca9020] Overread VUI by 5 bits
[h264 @ 0000017e3ab5d680] Overread VUI by 5 bits
[h264 @ 0000017e3aa17ec0] Overread VUI by 5 bits
[h264 @ 0000017e3aa183a0] Overread VUI by 5 bits
[h264 @ 0000017e3aa166c0] Overread VUI by 5 bits
[h264 @ 0000017e3aa161e0] Overread VUI by 5 bits
[h264 @ 0000017e3aa16b80] Overread VUI by 5 bits
[h264 @ 0000017e3aa17060] Overread VUI by 5 bits
[h264 @ 0000017e3aa17520] Overread VUI by 5 bits
[h264 @ 0000017e3aa18860] Overread VUI by 5 bits
[h264 @ 0000017e3aa18d40] Overread VUI by 5 bits
[h264 @ 0000017e3aa15840] Overread VUI by 5 bits
[h264 @ 0000017e3aa15380] Overread VUI by 5 bits
[h264 @ 0000017e3aa15d20] Overread VUI by 5 bits
[h264 @ 0000017e3aa17a00] Overread VUI by 5 bits
[h264 @ 0000017e3b9df3e0] Overread VUI by 5 bits
[h264 @ 0000017e3bca9020] Overread VUI by 5 bits
[h264 @ 0000017e3ab5d680] Overread VUI by 5 bits
[h264 @ 0000017e3aa17ec0] Overread VUI by 5 bits
[h264 @ 0000017e3aa183a0] Overread VUI by 5 bits
[h264 @ 0000017e3aa166c0] Overread VUI by 5 bits
[h264 @ 0000017e3aa161e0] Overread VUI by 5 bits
[h264 @ 0000017e3aa16b80] Overread VUI by 5 bits
[h264 @ 0000017e3aa17060] Overread VUI by 5 bits
[h264 @ 0000017e3aa17520] Overread VUI by 5 bits
[h264 @ 0000017e3aa18860] Overread VUI by 5 bits
[h264 @ 0000017e3aa18d40] Overread VUI by 5 bits
[h264 @ 0000017e3aa15840] Overread VUI by 5 bits
[h264 @ 0000017e3aa15380] Overread VUI by 5 bits
[h264 @ 0000017e3aa15d20] Overread VUI by 5 bits
[h264 @ 0000017e3aa17a00] Overread VUI by 5 bits
[h264 @ 0000017e3b9df3e0] Overread VUI by 5 bits
[h264 @ 0000017e3bca9020] Overread VUI by 5 bits
[h264 @ 0000017e3ab5d680] Overread VUI by 5 bits
[h264 @ 0000017e3aa17ec0] Overread VUI by 5 bits
[h264 @ 0000017e3aa183a0] Overread VUI by 5 bits
[h264 @ 0000017e3aa166c0] Overread VUI by 5 bits
[h264 @ 0000017e3aa161e0] Overread VUI by 5 bits
[h264 @ 0000017e3aa16b80] Overread VUI by 5 bits
[h264 @ 0000017e3aa17060] Overread VUI by 5 bits
[h264 @ 0000017e3aa17520] Overread VUI by 5 bits
[h264 @ 0000017e3aa18860] Overread VUI by 5 bits
[h264 @ 0000017e3aa18d40] Overread VUI by 5 bits
[h264 @ 0000017e3aa15840] Overread VUI by 5 bits
[h264 @ 0000017e3aa15380] Overread VUI by 5 bits
[h264 @ 0000017e3aa15d20] Overread VUI by 5 bits
[h264 @ 0000017e3aa17a00] Overread VUI by 5 bits
[h264 @ 0000017e3b9df3e0] Overread VUI by 5 bits
[h264 @ 0000017e3bca9020] Overread VUI by 5 bits
[h264 @ 0000017e3ab5d680] Overread VUI by 5 bits
[h264 @ 0000017e3aa17ec0] Overread VUI by 5 bits
[h264 @ 0000017e3aa183a0] Overread VUI by 5 bits
[h264 @ 0000017e3aa166c0] Overread VUI by 5 bits
[h264 @ 0000017e3aa161e0] Overread VUI by 5 bits
[h264 @ 0000017e3aa16b80] Overread VUI by 5 bits
[h264 @ 0000017e3aa17060] Overread VUI by 5 bits
[h264 @ 0000017e3aa17520] Overread VUI by 5 bits
[h264 @ 0000017e3aa18860] Overread VUI by 5 bits
[h264 @ 0000017e3aa18d40] Overread VUI by 5 bits
[h264 @ 0000017e3aa15840] Overread VUI by 5 bits
[h264 @ 0000017e3aa15380] Overread VUI by 5 bits
[h264 @ 0000017e3aa15d20] Overread VUI by 5 bits
[h264 @ 0000017e3aa17a00] Overread VUI by 5 bits
[h264 @ 0000017e3b9df3e0] Overread VUI by 5 bits
[h264 @ 0000017e3bca9020] Overread VUI by 5 bits
[h264 @ 0000017e3ab5d680] Overread VUI by 5 bits
[h264 @ 0000017e3aa17ec0] Overread VUI by 5 bits
[h264 @ 0000017e3aa183a0] Overread VUI by 5 bits
[h264 @ 0000017e3aa166c0] Overread VUI by 5 bits
[h264 @ 0000017e3aa161e0] Overread VUI by 5 bits
[h264 @ 0000017e3aa16b80] Overread VUI by 5 bits
[h264 @ 0000017e3aa17060] Overread VUI by 5 bits
[h264 @ 0000017e3aa17520] Overread VUI by 5 bits
[h264 @ 0000017e3aa18860] Overread VUI by 5 bits
[h264 @ 0000017e3aa18d40] Overread VUI by 5 bits
[h264 @ 0000017e3aa15840] Overread VUI by 5 bits
[h264 @ 0000017e3aa15380] Overread VUI by 5 bits
[h264 @ 0000017e3aa15d20] Overread VUI by 5 bits
[h264 @ 0000017e3aa17a00] Overread VUI by 5 bits
[h264 @ 0000017e3b9df3e0] Overread VUI by 5 bits
[h264 @ 0000017e3bca9020] Overread VUI by 5 bits
[h264 @ 0000017e3ab5d680] Overread VUI by 5 bits
[h264 @ 0000017e3aa17ec0] Overread VUI by 5 bits
frame=  131 fps=0.0 q=-0.0 Lsize=  145304kB time=00:00:05.24
bitrate=227162.8kbits/s speed=5.24x
video:144551kB audio:737kB subtitle:0kB other streams:0kB global
headers:0kB muxing overhead: 0.011078%
_______________________________________________
ffmpeg-user mailing list
[hidden email]
http://ffmpeg.org/mailman/listinfo/ffmpeg-user

To unsubscribe, visit link above, or email
[hidden email] with subject "unsubscribe".
Reply | Threaded
Open this post in threaded view
|

Re: New Overread VUI by 5 bits Warnings when decoding from AVC-Intra from Avid

Carl Eugen Hoyos-2
2018-06-06 13:09 GMT+02:00, Christoph Gerstbauer
<[hidden email]>:

> Hello,
>
> in the year 2014 I reported a Problem when decoding H264 10bit from
> AVCIntra MXF files.
> MXF File was created by Premiere:
> The old thread:
> https://lists.ffmpeg.org/pipermail/ffmpeg-user/2014-May/021213.html
>
> The problem was that the commandline output showed multiple error warnings
> with this information: "Overread VUI by 5 bits".
> This problem was fixed in 2014. I think it was a demuxer problem.
>
> Now I have the "same" problem with a MXF file from another encoder: AVID.
> -> Again "Overread VUI by 5 bits"
>
> By testing with FFMPEG 3.4 we get this:
> # May__2014: Decoding AVCIntra MXF made by Premiere: STILL GOOD.
> No Warnings, no Errors

Several errors are shown here for your old sample, they appear
to affect decoding.

> # June_2018: Decoding AVCIntra MXF made by AVID: "Overread VUI by 5 bits"

These messages do not look related, they are initialization-only.
I opened ticket #7249.

> The file from May2014 can be downloaded here:

> Decoding still without problems.

As said above, I don't think this is true.

> https://www.dropbox.com/s/yqtdt1enqt18wjv/ffmpeg__2014_PremierePro--Overread.VUI.by.5.bits.Problem___FIXED.mxf.zip?dl=0
>
> The current problem example file (June2018) can be downloaded here:
> https://www.dropbox.com/s/we2fldkgyc9tjq3/ffmpeg__2018_Sample-from-AVIDSystem--Overread.VUI.by.5.bits.Problem___NEW.mxf.zip?dl=0

I opened ticket #7249

Carl Eugen
_______________________________________________
ffmpeg-user mailing list
[hidden email]
http://ffmpeg.org/mailman/listinfo/ffmpeg-user

To unsubscribe, visit link above, or email
[hidden email] with subject "unsubscribe".
Reply | Threaded
Open this post in threaded view
|

Re: New Overread VUI by 5 bits Warnings when decoding from AVC-Intra from Avid

Christoph Gerstbauer-2
Hello Carl, thank you for the fast answer.

I am shure the AVCI file from year 2014 can be decoded with ffmpeg 3.4
without a "HINTED" problem in the command line window.
Maybe there are problems but not visible for me as cmd line user.
The file from 2018 is the hot one with the overread VUI hints at the cmd
line output.

Best Regards
Christoph Gerstbauer


Am Mi., 6. Juni 2018 um 15:16 Uhr schrieb Carl Eugen Hoyos <
[hidden email]>:

> 2018-06-06 13:09 GMT+02:00, Christoph Gerstbauer
> <[hidden email]>:
> > Hello,
> >
> > in the year 2014 I reported a Problem when decoding H264 10bit from
> > AVCIntra MXF files.
> > MXF File was created by Premiere:
> > The old thread:
> > https://lists.ffmpeg.org/pipermail/ffmpeg-user/2014-May/021213.html
> >
> > The problem was that the commandline output showed multiple error
> warnings
> > with this information: "Overread VUI by 5 bits".
> > This problem was fixed in 2014. I think it was a demuxer problem.
> >
> > Now I have the "same" problem with a MXF file from another encoder: AVID.
> > -> Again "Overread VUI by 5 bits"
> >
> > By testing with FFMPEG 3.4 we get this:
> > # May__2014: Decoding AVCIntra MXF made by Premiere: STILL GOOD.
> > No Warnings, no Errors
>
> Several errors are shown here for your old sample, they appear
> to affect decoding.
>
> > # June_2018: Decoding AVCIntra MXF made by AVID: "Overread VUI by 5 bits"
>
> These messages do not look related, they are initialization-only.
> I opened ticket #7249.
>
> > The file from May2014 can be downloaded here:
>
> > Decoding still without problems.
>
> As said above, I don't think this is true.
>
> >
> https://www.dropbox.com/s/yqtdt1enqt18wjv/ffmpeg__2014_PremierePro--Overread.VUI.by.5.bits.Problem___FIXED.mxf.zip?dl=0
> >
> > The current problem example file (June2018) can be downloaded here:
> >
> https://www.dropbox.com/s/we2fldkgyc9tjq3/ffmpeg__2018_Sample-from-AVIDSystem--Overread.VUI.by.5.bits.Problem___NEW.mxf.zip?dl=0
>
> I opened ticket #7249
>
> Carl Eugen
> _______________________________________________
> ffmpeg-user mailing list
> [hidden email]
> http://ffmpeg.org/mailman/listinfo/ffmpeg-user
>
> To unsubscribe, visit link above, or email
> [hidden email] with subject "unsubscribe".



--
--------------------------------------------------------------------------------------------------------
Student der Fachhochschule für Telekommunikation und Medien St. Pölten
Student of the university of applied sciences St. Pölten

Christoph Gerstbauer
St. Paul-Gasse 6/4
A-3500 Krems an der Donau
phone:  +43 (0) 699 - 11 658 238
email:    [hidden email]
[hidden email]
[hidden email]
ICQ: 292233201
_______________________________________________
ffmpeg-user mailing list
[hidden email]
http://ffmpeg.org/mailman/listinfo/ffmpeg-user

To unsubscribe, visit link above, or email
[hidden email] with subject "unsubscribe".
Reply | Threaded
Open this post in threaded view
|

Re: New Overread VUI by 5 bits Warnings when decoding from AVC-Intra from Avid

Carl Eugen Hoyos-2
2018-06-06 15:36 GMT+02:00, Christoph Gerstbauer
<[hidden email]>:

> I am shure the AVCI file from year 2014 can be decoded with ffmpeg 3.4
> without a "HINTED" problem in the command line window.

Do not top-post here!

The following is partly consistent with what you posted in 2014
(Not the partitioning warning, the slice decoding error):
$ ffmpeg -i 02_optTFF_MPEG4\ AVC\ part10\ \(AVC1\)_YUV422_\(pc\,\
bt709\)_10bit__4xMono-PCM24bit__Matrox\ Electronic\ DSX__AVC100.mxf -f
null -
ffmpeg version N-91231-gad94f1c Copyright (c) 2000-2018 the FFmpeg developers
  built with gcc 6.4.0 (GCC)
  configuration: --enable-gpl
  libavutil      56. 18.102 / 56. 18.102
  libavcodec     58. 19.105 / 58. 19.105
  libavformat    58. 17.100 / 58. 17.100
  libavdevice    58.  4.100 / 58.  4.100
  libavfilter     7. 25.100 /  7. 25.100
  libswscale      5.  2.100 /  5.  2.100
  libswresample   3.  2.100 /  3.  2.100
  libpostproc    55.  2.100 / 55.  2.100
[mxf @ 0x3a89400] Stream #0: not enough frames to estimate rate;
consider increasing probesize
Guessed Channel Layout for Input Stream #0.1 : mono
Guessed Channel Layout for Input Stream #0.2 : mono
Guessed Channel Layout for Input Stream #0.3 : mono
Guessed Channel Layout for Input Stream #0.4 : mono
Input #0, mxf, from '02_optTFF_MPEG4 AVC part10 (AVC1)_YUV422_(pc,
bt709)_10bit__4xMono-PCM24bit__Matrox Electronic DSX__AVC100.mxf':
  Metadata:
    uid             : 3fd61200-8436-05c1-f134-080046020221
    generation_uid  : 3fd61200-8436-05c2-f134-080046020221
    company_name    : Matrox Electronic
    product_name    : DSX
    product_version : 3.0
    product_uid     : 060e2b34-0401-0103-0e06-012002010200
    modification_date: 2013-10-10T19:03:51.000000Z
    material_package_umid:
0x060A2B340101010501010D20130000009FE82A0A99AB43E88BE4EDEFE15A4241
    timecode        : 00:00:00:00
  Duration: 00:00:22.24, start: 0.000000, bitrate: 118889 kb/s
    Stream #0:0: Video: h264 (High 4:2:2 Intra), yuv422p10le(pc,
bt709, top first), 1920x1080 [SAR 1:1 DAR 16:9], 25 fps, 25 tbr, 25
tbn, 50 tbc
    Metadata:
      file_package_umid:
0x060A2B340101010501010D4313000000CCAB250084360580080046020221F134
    Stream #0:1: Audio: pcm_s24le, 48000 Hz, mono, s32 (24 bit), 1152 kb/s
    Metadata:
      file_package_umid:
0x060A2B340101010501010D4313000000CCAB250084360580080046020221F134
    Stream #0:2: Audio: pcm_s24le, 48000 Hz, mono, s32 (24 bit), 1152 kb/s
    Metadata:
      file_package_umid:
0x060A2B340101010501010D4313000000CCAB250084360580080046020221F134
    Stream #0:3: Audio: pcm_s24le, 48000 Hz, mono, s32 (24 bit), 1152 kb/s
    Metadata:
      file_package_umid:
0x060A2B340101010501010D4313000000CCAB250084360580080046020221F134
    Stream #0:4: Audio: pcm_s24le, 48000 Hz, mono, s32 (24 bit), 1152 kb/s
    Metadata:
      file_package_umid:
0x060A2B340101010501010D4313000000CCAB250084360580080046020221F134
Stream mapping:
  Stream #0:0 -> #0:0 (h264 (native) -> wrapped_avframe (native))
  Stream #0:1 -> #0:1 (pcm_s24le (native) -> pcm_s16le (native))
Press [q] to stop, [?] for help
Output #0, null, to 'pipe:':
  Metadata:
    uid             : 3fd61200-8436-05c1-f134-080046020221
    generation_uid  : 3fd61200-8436-05c2-f134-080046020221
    company_name    : Matrox Electronic
    product_name    : DSX
    product_version : 3.0
    product_uid     : 060e2b34-0401-0103-0e06-012002010200
    modification_date: 2013-10-10T19:03:51.000000Z
    material_package_umid:
0x060A2B340101010501010D20130000009FE82A0A99AB43E88BE4EDEFE15A4241
    timecode        : 00:00:00:00
    encoder         : Lavf58.17.100
    Stream #0:0: Video: wrapped_avframe, yuv422p10le, 1920x1080 [SAR
1:1 DAR 16:9], q=2-31, 200 kb/s, 25 fps, 25 tbn, 25 tbc
    Metadata:
      file_package_umid:
0x060A2B340101010501010D4313000000CCAB250084360580080046020221F134
      encoder         : Lavc58.19.105 wrapped_avframe
    Stream #0:1: Audio: pcm_s16le, 48000 Hz, mono, s16, 768 kb/s
    Metadata:
      file_package_umid:
0x060A2B340101010501010D4313000000CCAB250084360580080046020221F134
      encoder         : Lavc58.19.105 pcm_s16le
[h264 @ 0x3aebc40] data partitioning is not implemented. Update your
FFmpeg version to the newest one from Git. If the problem still
occurs, it means that your file has a feature which has not been
implemented.
[h264 @ 0x3aebc40] If you want to help, upload a sample of this file
to ftp://upload.ffmpeg.org/incoming/ and contact the ffmpeg-devel
mailing list. ([hidden email])
[h264 @ 0x3aebc40] data partitioning is not implemented. Update your
FFmpeg version to the newest one from Git. If the problem still
occurs, it means that your file has a feature which has not been
implemented.
[h264 @ 0x3aebc40] If you want to help, upload a sample of this file
to ftp://upload.ffmpeg.org/incoming/ and contact the ffmpeg-devel
mailing list. ([hidden email])
[h264 @ 0x3e83880] A non-intra slice in an IDR NAL unit.
[h264 @ 0x3e83880] decode_slice_header error
[h264 @ 0x3aebc40] non-existing PPS 59 referenced
[h264 @ 0x3aebc40] decode_slice_header error
frame=  556 fps=139 q=-0.0 Lsize=N/A time=00:00:22.24 bitrate=N/A speed=5.56x
video:291kB audio:2085kB subtitle:0kB other streams:0kB global
headers:0kB muxing overhead: unknown

Carl Eugen
_______________________________________________
ffmpeg-user mailing list
[hidden email]
http://ffmpeg.org/mailman/listinfo/ffmpeg-user

To unsubscribe, visit link above, or email
[hidden email] with subject "unsubscribe".