How to copy all of 5 audio streams to mp4 file

classic Classic list List threaded Threaded
39 messages Options
12
Reply | Threaded
Open this post in threaded view
|

How to copy all of 5 audio streams to mp4 file

Ulf Zibis
Hi,

I have a ripped vob stream with 5 audio streams. I want all these audio
streams in the mp4 file. What to do for this?

Also there should be 13 subtitle streams in this video, but I don't find
them here.

$ ffmpeg -i
"concat:002-C001/VLuN-001.vob|002-C002/VLuN-001.vob|002-C003/VLuN-001.vob|002-C004/VLuN-001.vob|002-C005/VLuN-001.vob|002-C006/VLuN-001.vob|002-C007/VLuN-001.vob|002-C008/VLuN-001.vob|002-C009/VLuN-001.vob|002-C010/VLuN-001.vob|002-C011/VLuN-001.vob|002-C012/VLuN-001.vob|002-C013/VLuN-001.vob|002-C014/VLuN-001.vob|002-C015/VLuN-001.vob|002-C016/VLuN-001.vob"
-c:v libx264 -c:a copy -movflags +faststart
/media/Sicherung/Filme/VLuN/ffmpeg/002/VLuN.mp4
ffmpeg version 4.1-static https://johnvansickle.com/ffmpeg/  Copyright
(c) 2000-2018 the FFmpeg developers
  built with gcc 6.3.0 (Debian 6.3.0-18+deb9u1) 20170516
  configuration: --enable-gpl --enable-version3 --enable-static
--disable-debug --disable-ffplay --disable-indev=sndio
--disable-outdev=sndio --cc=gcc-6 --enable-fontconfig --enable-frei0r
--enable-gnutls --enable-gray --enable-libaom --enable-libfribidi
--enable-libass --enable-libvmaf --enable-libfreetype
--enable-libmp3lame --enable-libopencore-amrnb
--enable-libopencore-amrwb --enable-libopenjpeg --enable-librubberband
--enable-libsoxr --enable-libspeex --enable-libvorbis --enable-libopus
--enable-libtheora --enable-libvidstab --enable-libvo-amrwbenc
--enable-libvpx --enable-libwebp --enable-libx264 --enable-libx265
--enable-libxml2 --enable-libxvid --enable-libzimg
  libavutil      56. 22.100 / 56. 22.100
  libavcodec     58. 35.100 / 58. 35.100
  libavformat    58. 20.100 / 58. 20.100
  libavdevice    58.  5.100 / 58.  5.100
  libavfilter     7. 40.101 /  7. 40.101
  libswscale      5.  3.100 /  5.  3.100
  libswresample   3.  3.100 /  3.  3.100
  libpostproc    55.  3.100 / 55.  3.100
Input #0, mpeg, from
'concat:002-C001/VLuN-001.vob|002-C002/VLuN-001.vob|002-C003/VLuN-001.vob|002-C004/VLuN-001.vob|002-C005/VLuN-001.vob|002-C006/VLuN-001.vob|002-C007/VLuN-001.vob|002-C008/VLuN-001.vob|002-C009/VLuN-001.vob|002-C010/VLuN-001.vob|002-C011/VLuN-001.vob|002-C012/VLuN-001.vob|002-C013/VLuN-001.vob|002-C014/VLuN-001.vob|002-C015/VLuN-001.vob|002-C016/VLuN-001.vob':
  Duration: 01:46:25.22, start: 0.280000, bitrate: 7663 kb/s
    Stream #0:0[0x1e0]: Video: mpeg2video (Main), yuv420p(tv, top
first), 720x576 [SAR 64:45 DAR 16:9], 25 fps, 25 tbr, 90k tbn, 50 tbc
    Stream #0:1[0x80]: Audio: ac3, 48000 Hz, stereo, fltp, 192 kb/s
    Stream #0:2[0x81]: Audio: ac3, 48000 Hz, stereo, fltp, 192 kb/s
    Stream #0:3[0x82]: Audio: ac3, 48000 Hz, stereo, fltp, 192 kb/s
    Stream #0:4[0x83]: Audio: ac3, 48000 Hz, stereo, fltp, 192 kb/s
    Stream #0:5[0x84]: Audio: ac3, 48000 Hz, stereo, fltp, 192 kb/s
Stream mapping:
  Stream #0:0 -> #0:0 (mpeg2video (native) -> h264 (libx264))
  Stream #0:1 -> #0:1 (copy)
Press [q] to stop, [?] for help
[libx264 @ 0x6e731c0] using SAR=64/45
[libx264 @ 0x6e731c0] using cpu capabilities: MMX2 SSE2Fast SSSE3 SSE4.1
Cache64
[libx264 @ 0x6e731c0] profile High, level 3.0, 4:2:0, 8-bit
[libx264 @ 0x6e731c0] 264 - core 157 r2935 545de2f - H.264/MPEG-4 AVC
codec - Copyleft 2003-2018 - http://www.videolan.org/x264.html -
options: cabac=1 ref=3 deblock=1:0:0 analyse=0x3:0x113 me=hex subme=7
psy=1 psy_rd=1.00:0.00 mixed_ref=1 me_range=16 chroma_me=1 trellis=1
8x8dct=1 cqm=0 deadzone=21,11 fast_pskip=1 chroma_qp_offset=-2 threads=3
lookahead_threads=1 sliced_threads=0 nr=0 decimate=1 interlaced=0
bluray_compat=0 constrained_intra=0 bframes=3 b_pyramid=2 b_adapt=1
b_bias=0 direct=1 weightb=1 open_gop=0 weightp=2 keyint=250
keyint_min=25 scenecut=40 intra_refresh=0 rc_lookahead=40 rc=crf
mbtree=1 crf=23.0 qcomp=0.60 qpmin=0 qpmax=69 qpstep=4 ip_ratio=1.40
aq=1:1.00
[mp4 @ 0x6e6b740] track 1: codec frame size is not set
Output #0, mp4, to '/media/Sicherung/Filme/VLuN/ffmpeg/002/VLuN.mp4':
  Metadata:
    encoder         : Lavf58.20.100
    Stream #0:0: Video: h264 (libx264) (avc1 / 0x31637661), yuv420p,
720x576 [SAR 64:45 DAR 16:9], q=-1--1, 25 fps, 12800 tbn, 25 tbc
    Metadata:
      encoder         : Lavc58.35.100 libx264
    Side data:
      cpb: bitrate max/min/avg: 0/0/0 buffer size: 0 vbv_delay: -1
    Stream #0:1: Audio: ac3 (ac-3 / 0x332D6361), 48000 Hz, stereo, fltp,
192 kb/s
frame=  105 fps=0.0 q=28.0 size=       0kB time=00:00:04.00 bitrate=  
0.1kbits/frame=  133 fps=128 q=28.0 size=       0kB time=00:00:05.12
bitrate=   0.1kbits/frame=  161 fps=103 q=28.0 size=     256kB
time=00:00:06.27 bitrate= 334.4kbits/frame=  191 fps= 92 q=28.0
size=     256kB time=00:00:07.42 bitrate= 282.5kbits/frame=  218 fps= 84
q=28.0 size=     256kB time=00:00:08.64 bitrate= 242.8kbits/
[.....]
frame=159632 fps= 26 q=28.0 size= 1024768kB time=01:46:25.21
bitrate=1314.7kbits[mp4 @ 0x6e6b740] Starting second pass: moving the
moov atom to the beginning of the file
frame=159632 fps= 26 q=-1.0 Lsize= 1029008kB time=01:46:25.21
bitrate=1320.2kbits/s speed=1.04x   
video:875404kB audio:149654kB subtitle:0kB other streams:0kB global
headers:0kB muxing overhead: 0.385397%
[libx264 @ 0x6e731c0] frame I:1421  Avg QP:20.61  size: 37498
[libx264 @ 0x6e731c0] frame P:45896 Avg QP:23.66  size: 10916
[libx264 @ 0x6e731c0] frame B:112315 Avg QP:26.83  size:  3046
[libx264 @ 0x6e731c0] consecutive B-frames:  2.0%  4.7% 23.4% 69.8%
[libx264 @ 0x6e731c0] mb I  I16..4:  7.7% 80.0% 12.3%
[libx264 @ 0x6e731c0] mb P  I16..4:  1.1%  8.3%  1.4%  P16..4: 41.6%
16.8% 10.2%  0.0%  0.0%    skip:20.6%
[libx264 @ 0x6e731c0] mb B  I16..4:  0.1%  0.9%  0.2%  B16..8: 44.6% 
5.0%  1.1%  direct: 1.6%  skip:46.5%  L0:42.6% L1:48.7% BI: 8.7%
[libx264 @ 0x6e731c0] 8x8 transform intra:77.7% inter:79.6%
[libx264 @ 0x6e731c0] coded y,uvDC,uvAC intra: 75.5% 68.4% 22.7% inter:
17.4% 14.1% 0.2%
[libx264 @ 0x6e731c0] i16 v,h,dc,p: 38% 22%  6% 34%
[libx264 @ 0x6e731c0] i8 v,h,dc,ddl,ddr,vr,hd,vl,hu: 26%  9% 18%  6%  7%
11%  6% 11%  6%
[libx264 @ 0x6e731c0] i4 v,h,dc,ddl,ddr,vr,hd,vl,hu: 29% 15% 14%  6%  8%
11%  5%  8%  4%
[libx264 @ 0x6e731c0] i8c dc,h,v,p: 50% 15% 27%  7%
[libx264 @ 0x6e731c0] Weighted P-Frames: Y:6.7% UV:2.0%
[libx264 @ 0x6e731c0] ref P L0: 56.3% 18.7% 17.7%  6.9%  0.4%
[libx264 @ 0x6e731c0] ref B L0: 87.4% 10.2%  2.4%
[libx264 @ 0x6e731c0] ref B L1: 96.4%  3.6%
[libx264 @ 0x6e731c0] kb/s:1123.10

-Ulf

--
Von meinem Seibert gesendet

_______________________________________________
ffmpeg-user mailing list
[hidden email]
http://ffmpeg.org/mailman/listinfo/ffmpeg-user

To unsubscribe, visit link above, or email
[hidden email] with subject "unsubscribe".
Reply | Threaded
Open this post in threaded view
|

Re: How to copy all of 5 audio streams to mp4 file

Moritz Barsnick
On Mon, Feb 18, 2019 at 11:56:42 +0100, Ulf Zibis wrote:
> I have a ripped vob stream with 5 audio streams. I want all these audio
> streams in the mp4 file. What to do for this?

Read here:
https://ffmpeg.org/ffmpeg.html#Automatic-stream-selection

    "In the absence of any map options for a particular output file,
     ffmpeg inspects the output format to check which type of streams
     can be included in it, viz. video, audio and/or subtitles. For
     each acceptable stream type, ffmpeg will pick one stream, when
     available, from among all the inputs."

So, by default, ffmpeg only selects one of each.

You can use "-map 0" to get *all* streams from the input. This is at
the risk of also mapping e.g. data streams, which the output format may
not support. You would surpress them with "-dn".

Otherwise, you can map each stream explicitly: "-map 0:a:0 -map 0:a:1 ..."

> Also there should be 13 subtitle streams in this video, but I don't find
> them here.

In VOBs, subtitles tend to appear later in the files. Use large values
for "-probesize" and "-analyzeduration" for seeing them (not only when
probing, but also when converting).

OTOH, your ffmpeg output doesn't report them appearing later, which it
should, if it were to find them. So I'm not sure they're there.

Moritz
_______________________________________________
ffmpeg-user mailing list
[hidden email]
http://ffmpeg.org/mailman/listinfo/ffmpeg-user

To unsubscribe, visit link above, or email
[hidden email] with subject "unsubscribe".
Reply | Threaded
Open this post in threaded view
|

Re: How to copy all of 5 audio streams to mp4 file

Moritz Barsnick
In reply to this post by Ulf Zibis
On Mon, Feb 18, 2019 at 11:56:42 +0100, Ulf Zibis wrote:
> I have a ripped vob stream with 5 audio streams. I want all these audio
> streams in the mp4 file. What to do for this?

Oh, another thing: It depends on how these VOBs were ripped. In most
cases, ffmpeg won't we able to handle them as a bundle, with concat. It
will trip over other structures such as menus, stuffing, an so on.

There's a script to aid in ripping:
tools/dvd2concat

You may need to use that across your ripped DVD structure to access the
video.

Moritz
_______________________________________________
ffmpeg-user mailing list
[hidden email]
http://ffmpeg.org/mailman/listinfo/ffmpeg-user

To unsubscribe, visit link above, or email
[hidden email] with subject "unsubscribe".
Reply | Threaded
Open this post in threaded view
|

Re: How to copy all of 5 audio streams to mp4 file

Ulf Zibis
In reply to this post by Moritz Barsnick

Am 18.02.19 um 14:56 schrieb Moritz Barsnick:
> You can use "-map 0" to get *all* streams from the input. This is at
> the risk of also mapping e.g. data streams, which the output format may
> not support.

Great, this works fine now.

>> Also there should be 13 subtitle streams in this video, but I don't find
>> them here.
> In VOBs, subtitles tend to appear later in the files. Use large values
> for "-probesize" and "-analyzeduration" for seeing them (not only when
> probing, but also when converting).
>
> OTOH, your ffmpeg output doesn't report them appearing later, which it
> should, if it were to find them. So I'm not sure they're there.

They are detected now, but I don't have them in the output. Is that,
because I only have transcoded 6 min. this time?

$ ffmpeg -t 06:00 -i
"concat:002-C001/VLuN-001.vob|002-C002/VLuN-001.vob|002-C003/VLuN-001.vob|002-C004/VLuN-001.vob|002-C005/VLuN-001.vob|002-C006/VLuN-001.vob|002-C007/VLuN-001.vob|002-C008/VLuN-001.vob|002-C009/VLuN-001.vob|002-C010/VLuN-001.vob|002-C011/VLuN-001.vob|002-C012/VLuN-001.vob|002-C013/VLuN-001.vob|002-C014/VLuN-001.vob|002-C015/VLuN-001.vob|002-C016/VLuN-001.vob"
-map 0 -c:v libx264 -c:a copy -movflags +faststart
/media/Sicherung/Filme/VLuN/ffmpeg/002/VLuN_6m.mp4
ffmpeg version 4.1-static https://johnvansickle.com/ffmpeg/  Copyright
(c) 2000-2018 the FFmpeg developers
  built with gcc 6.3.0 (Debian 6.3.0-18+deb9u1) 20170516
  configuration: --enable-gpl --enable-version3 --enable-static
--disable-debug --disable-ffplay --disable-indev=sndio
--disable-outdev=sndio --cc=gcc-6 --enable-fontconfig --enable-frei0r
--enable-gnutls --enable-gray --enable-libaom --enable-libfribidi
--enable-libass --enable-libvmaf --enable-libfreetype
--enable-libmp3lame --enable-libopencore-amrnb
--enable-libopencore-amrwb --enable-libopenjpeg --enable-librubberband
--enable-libsoxr --enable-libspeex --enable-libvorbis --enable-libopus
--enable-libtheora --enable-libvidstab --enable-libvo-amrwbenc
--enable-libvpx --enable-libwebp --enable-libx264 --enable-libx265
--enable-libxml2 --enable-libxvid --enable-libzimg
  libavutil      56. 22.100 / 56. 22.100
  libavcodec     58. 35.100 / 58. 35.100
  libavformat    58. 20.100 / 58. 20.100
  libavdevice    58.  5.100 / 58.  5.100
  libavfilter     7. 40.101 /  7. 40.101
  libswscale      5.  3.100 /  5.  3.100
  libswresample   3.  3.100 /  3.  3.100
  libpostproc    55.  3.100 / 55.  3.100
Input #0, mpeg, from
'concat:002-C001/VLuN-001.vob|002-C002/VLuN-001.vob|002-C003/VLuN-001.vob|002-C004/VLuN-001.vob|002-C005/VLuN-001.vob|002-C006/VLuN-001.vob|002-C007/VLuN-001.vob|002-C008/VLuN-001.vob|002-C009/VLuN-001.vob|002-C010/VLuN-001.vob|002-C011/VLuN-001.vob|002-C012/VLuN-001.vob|002-C013/VLuN-001.vob|002-C014/VLuN-001.vob|002-C015/VLuN-001.vob|002-C016/VLuN-001.vob':
  Duration: 01:46:25.22, start: 0.280000, bitrate: 7663 kb/s
    Stream #0:0[0x1e0]: Video: mpeg2video (Main), yuv420p(tv, top
first), 720x576 [SAR 64:45 DAR 16:9], 25 fps, 25 tbr, 90k tbn, 50 tbc
    Stream #0:1[0x80]: Audio: ac3, 48000 Hz, stereo, fltp, 192 kb/s
    Stream #0:2[0x81]: Audio: ac3, 48000 Hz, stereo, fltp, 192 kb/s
    Stream #0:3[0x82]: Audio: ac3, 48000 Hz, stereo, fltp, 192 kb/s
    Stream #0:4[0x83]: Audio: ac3, 48000 Hz, stereo, fltp, 192 kb/s
    Stream #0:5[0x84]: Audio: ac3, 48000 Hz, stereo, fltp, 192 kb/s
Stream mapping:
  Stream #0:0 -> #0:0 (mpeg2video (native) -> h264 (libx264))
  Stream #0:1 -> #0:1 (copy)
  Stream #0:2 -> #0:2 (copy)
  Stream #0:3 -> #0:3 (copy)
  Stream #0:4 -> #0:4 (copy)
  Stream #0:5 -> #0:5 (copy)
Press [q] to stop, [?] for help
[libx264 @ 0x6de0240] using SAR=64/45
[libx264 @ 0x6de0240] using cpu capabilities: MMX2 SSE2Fast SSSE3 SSE4.1
Cache64
[libx264 @ 0x6de0240] profile High, level 3.0, 4:2:0, 8-bit
[libx264 @ 0x6de0240] 264 - core 157 r2935 545de2f - H.264/MPEG-4 AVC
codec - Copyleft 2003-2018 - http://www.videolan.org/x264.html -
options: cabac=1 ref=3 deblock=1:0:0 analyse=0x3:0x113 me=hex subme=7
psy=1 psy_rd=1.00:0.00 mixed_ref=1 me_range=16 chroma_me=1 trellis=1
8x8dct=1 cqm=0 deadzone=21,11 fast_pskip=1 chroma_qp_offset=-2 threads=3
lookahead_threads=1 sliced_threads=0 nr=0 decimate=1 interlaced=0
bluray_compat=0 constrained_intra=0 bframes=3 b_pyramid=2 b_adapt=1
b_bias=0 direct=1 weightb=1 open_gop=0 weightp=2 keyint=250
keyint_min=25 scenecut=40 intra_refresh=0 rc_lookahead=40 rc=crf
mbtree=1 crf=23.0 qcomp=0.60 qpmin=0 qpmax=69 qpstep=4 ip_ratio=1.40
aq=1:1.00
[mp4 @ 0x6ddd7c0] track 1: codec frame size is not set
[mp4 @ 0x6ddd7c0] track 2: codec frame size is not set
[mp4 @ 0x6ddd7c0] track 3: codec frame size is not set
[mp4 @ 0x6ddd7c0] track 4: codec frame size is not set
[mp4 @ 0x6ddd7c0] track 5: codec frame size is not set
Output #0, mp4, to '/media/Sicherung/Filme/VLuN/ffmpeg/002/VLuN_6m.mp4':
  Metadata:
    encoder         : Lavf58.20.100
    Stream #0:0: Video: h264 (libx264) (avc1 / 0x31637661), yuv420p,
720x576 [SAR 64:45 DAR 16:9], q=-1--1, 25 fps, 12800 tbn, 25 tbc
    Metadata:
      encoder         : Lavc58.35.100 libx264
    Side data:
      cpb: bitrate max/min/avg: 0/0/0 buffer size: 0 vbv_delay: -1
    Stream #0:1: Audio: ac3 (ac-3 / 0x332D6361), 48000 Hz, stereo, fltp,
192 kb/s
    Stream #0:2: Audio: ac3 (ac-3 / 0x332D6361), 48000 Hz, stereo, fltp,
192 kb/s
    Stream #0:3: Audio: ac3 (ac-3 / 0x332D6361), 48000 Hz, stereo, fltp,
192 kb/s
    Stream #0:4: Audio: ac3 (ac-3 / 0x332D6361), 48000 Hz, stereo, fltp,
192 kb/s
    Stream #0:5: Audio: ac3 (ac-3 / 0x332D6361), 48000 Hz, stereo, fltp,
192 kb/s
frame=   70 fps=0.0 q=28.0 size=       0kB time=00:00:02.62 bitrate=  
0.1kbits/frame=  118 fps=117 q=28.0 size=     256kB time=00:00:04.48
bitrate= 468.2kbits/frame=  142 fps= 92 q=28.0 size=     512kB
time=00:00:05.50 bitrate= 762.1kbits/frame=  166 fps= 81 q=28.0
size=     512kB time=00:00:06.43 bitrate= 652.2kbits/frame=  191 fps= 74
q=28.0 size=     768kB time=00:00:07.42 bitrate= 847.5kbits/frame=  218
fps= 70 q=28.0 size=    1024kB time=00:00:08.64 bitrate=
970.9kbits/frame=  245 fps= 67 q=28.0 size=    1280kB time=00:00:09.63
bitrate=1088.7kbits/frame=  273 fps= 66 q=28.0 size=    1280kB
time=00:00:10.68 bitrate= 981.1kbits/frame=  305 fps= 66 q=28.0 size=   
1536kB time=00:00:12.03 bitrate=1045.8kbits/frame=  326 fps= 63 q=28.0
size=    1792kB time=00:00:12.92 bitrate=1135.6kbits/frame=  347 fps= 61
q=28.0 size=    1792kB time=00:00:13.76 bitrate=1066.9kbits/frame=  368
fps= 59 q=28.0 size=    2048kB time=00:00:14.49
bitrate=1157.4kbits/frame=  387 fps= 57 q=28.0 size=    2048kB
time=00:00:15.36 bitrate=1092.3kbits/frame=  406 fps= 56 q=28.0 size=   
2304kB time=00:00:16.03 bitrate=1177.3kbits/frame=  427 fps= 55 q=28.0
size=    2304kB time=00:00:16.92 bitrate=1115.0kbits/frame=  443 fps= 53
q=28.0 size=    2560kB time=00:00:17.63 bitrate=1189.4kbits/frame=  460
fps= 52 q=28.0 size=    2560kB time=00:00:18.27
bitrate=1147.8kbits/frame=  478 fps= 51 q=28.0 size=    2560kB
time=00:00:18.88 bitrate=1110.8kbits/frame=  496 fps= 51 q=28.0 size=   
2816kB time=00:00:19.68 bitrate=1172.2kbits/frame=  513 fps= 50 q=28.0
size=    2816kB time=00:00:20.28 bitrate=1137.1kbits/frame=  530 fps= 49
q=28.0 size=    3072kB time=00:00:21.05 bitrate=1195.2kbits/frame=  550
fps= 48 q=28.0 size=    3072kB time=00:00:21.79
bitrate=1154.8kbits/frame=  566 fps= 48 q=28.0 size=    3328kB
time=00:00:22.49 bitrate=1211.9kbits/frame=  586 fps= 47 q=28.0 size=   
3328kB time=00:00:23.16 bitrate=1176.8kbits/frame=  607 fps= 47 q=25.0
size=    3584kB time=00:00:23.96 bitrate=1225.0kbits/frame=  694 fps= 52
q=28.0 size=    4096kB time=00:00:27.52 bitrate=1219.3kbits/[mpeg @
0x6d89bc0] New subtitle stream 0:6 at pos:26595342 and DTS:31.08s
[mpeg @ 0x6d89bc0] New subtitle stream 0:7 at pos:26603534 and DTS:31.16s
[mpeg @ 0x6d89bc0] New subtitle stream 0:8 at pos:26607630 and DTS:31.16s
[mpeg @ 0x6d89bc0] New subtitle stream 0:9 at pos:26611726 and DTS:31.16s
[mpeg @ 0x6d89bc0] New subtitle stream 0:10 at pos:26615822 and DTS:31.16s
[mpeg @ 0x6d89bc0] New subtitle stream 0:11 at pos:26619918 and DTS:31.16s
[mpeg @ 0x6d89bc0] New subtitle stream 0:12 at pos:26624014 and DTS:31.16s
[mpeg @ 0x6d89bc0] New subtitle stream 0:13 at pos:26669070 and DTS:31.16s
[mpeg @ 0x6d89bc0] New subtitle stream 0:14 at pos:26673166 and DTS:31.16s
[mpeg @ 0x6d89bc0] New subtitle stream 0:15 at pos:26677262 and DTS:31.16s
[mpeg @ 0x6d89bc0] New subtitle stream 0:16 at pos:26685454 and DTS:31.16s
[mpeg @ 0x6d89bc0] New subtitle stream 0:17 at pos:26695694 and DTS:31.16s
[mpeg @ 0x6d89bc0] New subtitle stream 0:18 at pos:26746894 and DTS:31.2s
frame=  790 fps= 57 q=28.0 size=    4352kB time=00:00:31.29
bitrate=1139.2kbits/frame=  871 fps= 60 q=28.0 size=    4864kB
time=00:00:34.65 bitrate=1149.8kbits/frame=  941 fps= 63 q=28.0 size=   
5120kB time=00:00:37.40 bitrate=1121.2kbits/
[.....]
frame= 8992 fps= 28 q=28.0 size=   98304kB time=00:05:59.48
bitrate=2240.1kbits/[mp4 @ 0x6ddd7c0] Starting second pass: moving the
moov atom to the beginning of the file
frame= 9000 fps= 28 q=-1.0 Lsize=   99606kB time=00:06:00.25
bitrate=2265.0kbits/s speed= 1.1x   
video:57030kB audio:42221kB subtitle:0kB other streams:0kB global
headers:0kB muxing overhead: 0.357521%
[libx264 @ 0x6de0240] frame I:82    Avg QP:19.95  size: 43523
[libx264 @ 0x6de0240] frame P:2769  Avg QP:22.80  size: 13011
[libx264 @ 0x6de0240] frame B:6149  Avg QP:26.18  size:  3058
[libx264 @ 0x6de0240] consecutive B-frames:  2.6%  7.0% 35.8% 54.7%
[libx264 @ 0x6de0240] mb I  I16..4: 14.5% 73.2% 12.3%
[libx264 @ 0x6de0240] mb P  I16..4:  1.0%  7.8%  1.3%  P16..4: 33.8%
18.1% 12.0%  0.0%  0.0%    skip:26.0%
[libx264 @ 0x6de0240] mb B  I16..4:  0.2%  0.9%  0.1%  B16..8: 38.8% 
5.6%  1.2%  direct: 2.1%  skip:51.1%  L0:39.6% L1:44.7% BI:15.8%
[libx264 @ 0x6de0240] 8x8 transform intra:76.6% inter:75.5%
[libx264 @ 0x6de0240] coded y,uvDC,uvAC intra: 74.9% 68.4% 22.9% inter:
20.1% 13.6% 0.3%
[libx264 @ 0x6de0240] i16 v,h,dc,p: 52% 22%  4% 21%
[libx264 @ 0x6de0240] i8 v,h,dc,ddl,ddr,vr,hd,vl,hu: 22% 10% 20%  6%  7%
11%  6% 11%  7%
[libx264 @ 0x6de0240] i4 v,h,dc,ddl,ddr,vr,hd,vl,hu: 24% 19% 13%  6%  8%
11%  6%  9%  4%
[libx264 @ 0x6de0240] i8c dc,h,v,p: 52% 17% 24%  7%
[libx264 @ 0x6de0240] Weighted P-Frames: Y:16.0% UV:3.4%
[libx264 @ 0x6de0240] ref P L0: 57.9% 19.7% 15.9%  5.9%  0.6%
[libx264 @ 0x6de0240] ref B L0: 88.0% 10.1%  1.9%
[libx264 @ 0x6de0240] ref B L1: 97.7%  2.3%
[libx264 @ 0x6de0240] kb/s:1297.73

-Ulf

_______________________________________________
ffmpeg-user mailing list
[hidden email]
http://ffmpeg.org/mailman/listinfo/ffmpeg-user

To unsubscribe, visit link above, or email
[hidden email] with subject "unsubscribe".
Reply | Threaded
Open this post in threaded view
|

Re: How to copy all of 5 audio streams to mp4 file

Moritz Barsnick
On Mon, Feb 18, 2019 at 16:29:01 +0100, Ulf Zibis wrote:

> >> Also there should be 13 subtitle streams in this video, but I don't find
> >> them here.
> > In VOBs, subtitles tend to appear later in the files. Use large values
> > for "-probesize" and "-analyzeduration" for seeing them (not only when
> > probing, but also when converting).
> >
> > OTOH, your ffmpeg output doesn't report them appearing later, which it
> > should, if it were to find them. So I'm not sure they're there.
>
> They are detected now, but I don't have them in the output. Is that,
> because I only have transcoded 6 min. this time?

No, they are detected *while* demuxing the input:

> [mpeg @ 0x6d89bc0] New subtitle stream 0:7 at pos:26603534 and DTS:31.16s
> [mpeg @ 0x6d89bc0] New subtitle stream 0:8 at pos:26607630 and DTS:31.16s
> [mpeg @ 0x6d89bc0] New subtitle stream 0:9 at pos:26611726 and DTS:31.16s
> [mpeg @ 0x6d89bc0] New subtitle stream 0:10 at pos:26615822 and DTS:31.16s
> [mpeg @ 0x6d89bc0] New subtitle stream 0:11 at pos:26619918 and DTS:31.16s
> [mpeg @ 0x6d89bc0] New subtitle stream 0:12 at pos:26624014 and DTS:31.16s
> [mpeg @ 0x6d89bc0] New subtitle stream 0:13 at pos:26669070 and DTS:31.16s
> [mpeg @ 0x6d89bc0] New subtitle stream 0:14 at pos:26673166 and DTS:31.16s
> [mpeg @ 0x6d89bc0] New subtitle stream 0:15 at pos:26677262 and DTS:31.16s
> [mpeg @ 0x6d89bc0] New subtitle stream 0:16 at pos:26685454 and DTS:31.16s
> [mpeg @ 0x6d89bc0] New subtitle stream 0:17 at pos:26695694 and DTS:31.16s
> [mpeg @ 0x6d89bc0] New subtitle stream 0:18 at pos:26746894 and DTS:31.2s

ffmpeg needs to detect them *before* demuxing. That's why I told you to
use large values for "-probesize" and "-analyzeduration". They tell
ffmpeg to look deeply into the video before deciding which input
streams are available. Then "-map 0" would pick them up for the
output, or you could select them with "-map 0:s:N".

(Possibly, you can derive useful values for "-probesize" and "-analyzeduration"
from "pos:26746894" and "DTS:31.2s", but I'm not sure. For unknown
input VOBs, you may need to specify the maximum possible values, which
would be 9223372036854775807.)

Cheers,
Moritz
_______________________________________________
ffmpeg-user mailing list
[hidden email]
http://ffmpeg.org/mailman/listinfo/ffmpeg-user

To unsubscribe, visit link above, or email
[hidden email] with subject "unsubscribe".
Reply | Threaded
Open this post in threaded view
|

Re: How to copy all of 5 audio streams to mp4 file

Ulf Zibis
Hi Moritz,

thanks for your additional hints.

Am 18.02.19 um 17:06 schrieb Moritz Barsnick:

> ffmpeg needs to detect them *before* demuxing. That's why I told you to
> use large values for "-probesize" and "-analyzeduration". They tell
> ffmpeg to look deeply into the video before deciding which input
> streams are available. Then "-map 0" would pick them up for the
> output, or you could select them with "-map 0:s:N".
>
> (Possibly, you can derive useful values for "-probesize" and "-analyzeduration"
> from "pos:26746894" and "DTS:31.2s", but I'm not sure. For unknown
> input VOBs, you may need to specify the maximum possible values, which
> would be 9223372036854775807.)

I got the same results with that. Does it matter at which position I put
these arguments and does it last to use only one of the two?

$ ffmpeg -i
"concat:002-C001/VLuN-001.vob|002-C002/VLuN-001.vob|002-C003/VLuN-001.vob|002-C004/VLuN-001.vob|002-C005/VLuN-001.vob|002-C006/VLuN-001.vob|002-C007/VLuN-001.vob|002-C008/VLuN-001.vob|002-C009/VLuN-001.vob|002-C010/VLuN-001.vob|002-C011/VLuN-001.vob|002-C012/VLuN-001.vob|002-C013/VLuN-001.vob|002-C014/VLuN-001.vob|002-C015/VLuN-001.vob|002-C016/VLuN-001.vob"
-probesize 9223372036854775807 -analyzeduration 7000000000 -map 0 -vf
crop=720:552 -c:v libx264 -c:a copy -t 06:00 -movflags +faststart
/media/Sicherung/Filme/VLuN/ffmpeg/002/VLuN_6m.mp4
ffmpeg version 4.1-static https://johnvansickle.com/ffmpeg/  Copyright
(c) 2000-2018 the FFmpeg developers
  built with gcc 6.3.0 (Debian 6.3.0-18+deb9u1) 20170516
  configuration: --enable-gpl --enable-version3 --enable-static
--disable-debug --disable-ffplay --disable-indev=sndio
--disable-outdev=sndio --cc=gcc-6 --enable-fontconfig --enable-frei0r
--enable-gnutls --enable-gray --enable-libaom --enable-libfribidi
--enable-libass --enable-libvmaf --enable-libfreetype
--enable-libmp3lame --enable-libopencore-amrnb
--enable-libopencore-amrwb --enable-libopenjpeg --enable-librubberband
--enable-libsoxr --enable-libspeex --enable-libvorbis --enable-libopus
--enable-libtheora --enable-libvidstab --enable-libvo-amrwbenc
--enable-libvpx --enable-libwebp --enable-libx264 --enable-libx265
--enable-libxml2 --enable-libxvid --enable-libzimg
  libavutil      56. 22.100 / 56. 22.100
  libavcodec     58. 35.100 / 58. 35.100
  libavformat    58. 20.100 / 58. 20.100
  libavdevice    58.  5.100 / 58.  5.100
  libavfilter     7. 40.101 /  7. 40.101
  libswscale      5.  3.100 /  5.  3.100
  libswresample   3.  3.100 /  3.  3.100
  libpostproc    55.  3.100 / 55.  3.100
Input #0, mpeg, from
'concat:002-C001/VLuN-001.vob|002-C002/VLuN-001.vob|002-C003/VLuN-001.vob|002-C004/VLuN-001.vob|002-C005/VLuN-001.vob|002-C006/VLuN-001.vob|002-C007/VLuN-001.vob|002-C008/VLuN-001.vob|002-C009/VLuN-001.vob|002-C010/VLuN-001.vob|002-C011/VLuN-001.vob|002-C012/VLuN-001.vob|002-C013/VLuN-001.vob|002-C014/VLuN-001.vob|002-C015/VLuN-001.vob|002-C016/VLuN-001.vob':
  Duration: 01:46:25.22, start: 0.280000, bitrate: 7663 kb/s
    Stream #0:0[0x1e0]: Video: mpeg2video (Main), yuv420p(tv, top
first), 720x576 [SAR 64:45 DAR 16:9], 25 fps, 25 tbr, 90k tbn, 50 tbc
    Stream #0:1[0x80]: Audio: ac3, 48000 Hz, stereo, fltp, 192 kb/s
    Stream #0:2[0x81]: Audio: ac3, 48000 Hz, stereo, fltp, 192 kb/s
    Stream #0:3[0x82]: Audio: ac3, 48000 Hz, stereo, fltp, 192 kb/s
    Stream #0:4[0x83]: Audio: ac3, 48000 Hz, stereo, fltp, 192 kb/s
    Stream #0:5[0x84]: Audio: ac3, 48000 Hz, stereo, fltp, 192 kb/s
File '/media/Sicherung/Filme/VLuN/ffmpeg/002/VLuN_6m.mp4' already
exists. Overwrite ? [y/N] y
Stream mapping:
  Stream #0:0 -> #0:0 (mpeg2video (native) -> h264 (libx264))
  Stream #0:1 -> #0:1 (copy)
  Stream #0:2 -> #0:2 (copy)
  Stream #0:3 -> #0:3 (copy)
  Stream #0:4 -> #0:4 (copy)
  Stream #0:5 -> #0:5 (copy)
Press [q] to stop, [?] for help
[libx264 @ 0x5cd1cc0] using SAR=64/45
[libx264 @ 0x5cd1cc0] using cpu capabilities: MMX2 SSE2Fast SSSE3 SSE4.1
Cache64
[libx264 @ 0x5cd1cc0] profile High, level 3.0, 4:2:0, 8-bit
[libx264 @ 0x5cd1cc0] 264 - core 157 r2935 545de2f - H.264/MPEG-4 AVC
codec - Copyleft 2003-2018 - http://www.videolan.org/x264.html -
options: cabac=1 ref=3 deblock=1:0:0 analyse=0x3:0x113 me=hex subme=7
psy=1 psy_rd=1.00:0.00 mixed_ref=1 me_range=16 chroma_me=1 trellis=1
8x8dct=1 cqm=0 deadzone=21,11 fast_pskip=1 chroma_qp_offset=-2 threads=3
lookahead_threads=1 sliced_threads=0 nr=0 decimate=1 interlaced=0
bluray_compat=0 constrained_intra=0 bframes=3 b_pyramid=2 b_adapt=1
b_bias=0 direct=1 weightb=1 open_gop=0 weightp=2 keyint=250
keyint_min=25 scenecut=40 intra_refresh=0 rc_lookahead=40 rc=crf
mbtree=1 crf=23.0 qcomp=0.60 qpmin=0 qpmax=69 qpstep=4 ip_ratio=1.40
aq=1:1.00
[mp4 @ 0x5cd0dc0] track 1: codec frame size is not set
[mp4 @ 0x5cd0dc0] track 2: codec frame size is not set
[mp4 @ 0x5cd0dc0] track 3: codec frame size is not set
[mp4 @ 0x5cd0dc0] track 4: codec frame size is not set
[mp4 @ 0x5cd0dc0] track 5: codec frame size is not set
Output #0, mp4, to '/media/Sicherung/Filme/VLuN/ffmpeg/002/VLuN_6m.mp4':
  Metadata:
    encoder         : Lavf58.20.100
    Stream #0:0: Video: h264 (libx264) (avc1 / 0x31637661), yuv420p,
720x552 [SAR 64:45 DAR 128:69], q=-1--1, 25 fps, 12800 tbn, 25 tbc
    Metadata:
      encoder         : Lavc58.35.100 libx264
    Side data:
      cpb: bitrate max/min/avg: 0/0/0 buffer size: 0 vbv_delay: -1
    Stream #0:1: Audio: ac3 (ac-3 / 0x332D6361), 48000 Hz, stereo, fltp,
192 kb/s
    Stream #0:2: Audio: ac3 (ac-3 / 0x332D6361), 48000 Hz, stereo, fltp,
192 kb/s
    Stream #0:3: Audio: ac3 (ac-3 / 0x332D6361), 48000 Hz, stereo, fltp,
192 kb/s
    Stream #0:4: Audio: ac3 (ac-3 / 0x332D6361), 48000 Hz, stereo, fltp,
192 kb/s
    Stream #0:5: Audio: ac3 (ac-3 / 0x332D6361), 48000 Hz, stereo, fltp,
192 kb/s
frame=   98 fps=0.0 q=28.0 size=       0kB time=00:00:03.84 bitrate=  
0.1kbits/frame=  128 fps=126 q=28.0 size=     256kB time=00:00:04.89
bitrate= 428.4kbits/frame=  150 fps= 99 q=28.0 size=     512kB
time=00:00:05.82 bitrate= 720.2kbits/frame=  175 fps= 87 q=28.0
size=     768kB time=00:00:06.84 bitrate= 918.8kbits/frame=  199 fps= 79
q=28.0 size=     768kB time=00:00:07.80 bitrate= 805.8kbits/frame=  227
fps= 75 q=28.0 size=    1024kB time=00:00:08.86 bitrate=
946.4kbits/frame=  253 fps= 71 q=28.0 size=    1280kB time=00:00:09.88
bitrate=1060.5kbits/frame=  281 fps= 68 q=28.0 size=    1536kB
time=00:00:11.07 bitrate=1136.5kbits/frame=  316 fps= 68 q=28.0 size=   
1536kB time=00:00:12.51 bitrate=1005.7kbits/frame=  335 fps= 65 q=28.0
size=    1792kB time=00:00:13.24 bitrate=1108.1kbits/frame=  358 fps= 63
q=28.0 size=    1792kB time=00:00:14.04 bitrate=1045.0kbits/frame=  377
fps= 61 q=28.0 size=    2048kB time=00:00:14.94
bitrate=1122.7kbits/frame=  397 fps= 59 q=28.0 size=    2048kB
time=00:00:15.77 bitrate=1063.5kbits/frame=  416 fps= 58 q=28.0 size=   
2304kB time=00:00:16.44 bitrate=1147.5kbits/frame=  436 fps= 57 q=28.0
size=    2304kB time=00:00:17.24 bitrate=1094.3kbits/frame=  454 fps= 55
q=28.0 size=    2560kB time=00:00:17.92 bitrate=1170.3kbits/frame=  473
fps= 54 q=28.0 size=    2560kB time=00:00:18.75
bitrate=1118.4kbits/frame=  490 fps= 53 q=28.0 size=    2816kB
time=00:00:19.39 bitrate=1189.6kbits/frame=  507 fps= 52 q=28.0 size=   
2816kB time=00:00:20.09 bitrate=1147.9kbits/frame=  526 fps= 51 q=28.0
size=    2816kB time=00:00:20.80 bitrate=1109.1kbits/frame=  545 fps= 50
q=28.0 size=    3072kB time=00:00:21.66 bitrate=1161.7kbits/frame=  562
fps= 50 q=28.0 size=    3072kB time=00:00:22.33
bitrate=1126.7kbits/frame=  583 fps= 49 q=28.0 size=    3328kB
time=00:00:23.04 bitrate=1183.3kbits/frame=  604 fps= 49 q=28.0 size=   
3584kB time=00:00:23.96 bitrate=1225.0kbits/frame=  677 fps= 53 q=28.0
size=    3840kB time=00:00:26.84 bitrate=1171.7kbits/[mpeg @ 0x5c7dc40]
New subtitle stream 0:6 at pos:26595342 and DTS:31.08s
[mpeg @ 0x5c7dc40] New subtitle stream 0:7 at pos:26603534 and DTS:31.16s
[mpeg @ 0x5c7dc40] New subtitle stream 0:8 at pos:26607630 and DTS:31.16s
[mpeg @ 0x5c7dc40] New subtitle stream 0:9 at pos:26611726 and DTS:31.16s
[mpeg @ 0x5c7dc40] New subtitle stream 0:10 at pos:26615822 and DTS:31.16s
[mpeg @ 0x5c7dc40] New subtitle stream 0:11 at pos:26619918 and DTS:31.16s
[mpeg @ 0x5c7dc40] New subtitle stream 0:12 at pos:26624014 and DTS:31.16s
[mpeg @ 0x5c7dc40] New subtitle stream 0:13 at pos:26669070 and DTS:31.16s
[mpeg @ 0x5c7dc40] New subtitle stream 0:14 at pos:26673166 and DTS:31.16s
[mpeg @ 0x5c7dc40] New subtitle stream 0:15 at pos:26677262 and DTS:31.16s
[mpeg @ 0x5c7dc40] New subtitle stream 0:16 at pos:26685454 and DTS:31.16s
[mpeg @ 0x5c7dc40] New subtitle stream 0:17 at pos:26695694 and DTS:31.16s
[mpeg @ 0x5c7dc40] New subtitle stream 0:18 at pos:26746894 and DTS:31.2s
frame=  778 fps= 58 q=28.0 size=    4352kB time=00:00:30.88
bitrate=1154.5kbits/
[.....]
frame= 8992 fps= 29 q=28.0 size=   94464kB time=00:05:59.48
bitrate=2152.6kbits/[mp4 @ 0x5cd0dc0] Starting second pass: moving the
moov atom to the beginning of the file
frame= 9000 fps= 28 q=-1.0 Lsize=   95835kB time=00:05:59.96
bitrate=2181.0kbits/s speed=1.13x   
video:53286kB audio:42188kB subtitle:0kB other streams:0kB global
headers:0kB muxing overhead: 0.378327%
[libx264 @ 0x5cd1cc0] frame I:86    Avg QP:20.07  size: 43752
[libx264 @ 0x5cd1cc0] frame P:2517  Avg QP:22.67  size: 12540
[libx264 @ 0x5cd1cc0] frame B:6397  Avg QP:26.19  size:  3007
[libx264 @ 0x5cd1cc0] consecutive B-frames:  2.7%  5.0%  8.1% 84.2%
[libx264 @ 0x5cd1cc0] mb I  I16..4: 13.2% 62.7% 24.0%
[libx264 @ 0x5cd1cc0] mb P  I16..4:  0.9%  8.0%  1.9%  P16..4: 32.1%
18.3% 11.7%  0.0%  0.0%    skip:27.2%
[libx264 @ 0x5cd1cc0] mb B  I16..4:  0.1%  0.9%  0.2%  B16..8: 38.4% 
6.1%  1.4%  direct: 2.4%  skip:50.5%  L0:40.1% L1:46.3% BI:13.5%
[libx264 @ 0x5cd1cc0] 8x8 transform intra:71.9% inter:67.7%
[libx264 @ 0x5cd1cc0] coded y,uvDC,uvAC intra: 77.0% 68.0% 24.1% inter:
19.3% 12.9% 0.3%
[libx264 @ 0x5cd1cc0] i16 v,h,dc,p: 55% 13%  5% 27%
[libx264 @ 0x5cd1cc0] i8 v,h,dc,ddl,ddr,vr,hd,vl,hu: 24% 10% 15%  7%  8%
11%  7% 12%  7%
[libx264 @ 0x5cd1cc0] i4 v,h,dc,ddl,ddr,vr,hd,vl,hu: 29%  9% 11%  7%  9%
13%  6% 10%  5%
[libx264 @ 0x5cd1cc0] i8c dc,h,v,p: 54% 13% 26%  7%
[libx264 @ 0x5cd1cc0] Weighted P-Frames: Y:19.0% UV:4.4%
[libx264 @ 0x5cd1cc0] ref P L0: 54.5% 20.5% 17.4%  6.7%  0.8%
[libx264 @ 0x5cd1cc0] ref B L0: 90.5%  7.6%  1.9%
[libx264 @ 0x5cd1cc0] ref B L1: 96.5%  3.5%
[libx264 @ 0x5cd1cc0] kb/s:1212.55

_______________________________________________
ffmpeg-user mailing list
[hidden email]
http://ffmpeg.org/mailman/listinfo/ffmpeg-user

To unsubscribe, visit link above, or email
[hidden email] with subject "unsubscribe".
Reply | Threaded
Open this post in threaded view
|

Re: How to copy all of 5 audio streams to mp4 file

Ulf Zibis
In reply to this post by Moritz Barsnick
Hi Moritz,

Am 18.02.19 um 17:06 schrieb Moritz Barsnick:

> ffmpeg needs to detect them *before* demuxing. That's why I told you to
> use large values for "-probesize" and "-analyzeduration". They tell
> ffmpeg to look deeply into the video before deciding which input
> streams are available. Then "-map 0" would pick them up for the
> output, or you could select them with "-map 0:s:N".
>
> (Possibly, you can derive useful values for "-probesize" and "-analyzeduration"
> from "pos:26746894" and "DTS:31.2s", but I'm not sure. For unknown
> input VOBs, you may need to specify the maximum possible values, which
> would be 9223372036854775807.)

When I look at dvd::rip, which I used to rip the DVD, it seems that
there are used images for the subtitles and when I invoke "create
vobsub" I get a bunch of files, where I don't know how to process with
ffmpeg. Can you give me another hint?

$ ls -R dvdrip/tmp/
dvdrip/tmp/:
backup.rip                  VLuN-002-C015-nav.log
divx4.log                   VLuN-002-C016-nav.log
ifo                         VLuN-002-preview-clip1.jpg
logfile.txt                 VLuN-002-preview-clip2.jpg
subtitles                   VLuN-002-preview-orig.jpg
VLuN-001-C001-nav.log       VLuN-002-preview-orig.raw
VLuN-001-preview-clip1.jpg  VLuN-002-preview-zoom.jpg
VLuN-001-preview-clip2.jpg  VLuN-002-sid00.ps1
VLuN-001-preview-orig.jpg   VLuN-002-sid01.ps1
VLuN-001-preview-orig.raw   VLuN-003-C001-nav.log
VLuN-001-preview-zoom.jpg   VLuN-003-preview-clip1.jpg
VLuN-002-C001-nav.log       VLuN-003-preview-clip2.jpg
VLuN-002-C002-nav.log       VLuN-003-preview-orig.jpg
VLuN-002-C003-nav.log       VLuN-003-preview-orig.raw
VLuN-002-C004-nav.log       VLuN-003-preview-zoom.jpg
VLuN-002-C005-nav.log       VLuN-004-C001-nav.log
VLuN-002-C006-nav.log       VLuN-004-C002-nav.log
VLuN-002-C007-nav.log       VLuN-004-nav.log
VLuN-002-C008-nav.log       VLuN-004-preview-clip1.jpg
VLuN-002-C009-nav.log       VLuN-004-preview-clip2.jpg
VLuN-002-C010-nav.log       VLuN-004-preview-orig.jpg
VLuN-002-C011-nav.log       VLuN-004-preview-orig.raw
VLuN-002-C012-nav.log       VLuN-004-preview-zoom.jpg
VLuN-002-C013-nav.log       xvid4.cfg
VLuN-002-C014-nav.log

dvdrip/tmp/ifo:
vts_01_0.ifo  vts_02_0.ifo  vts_03_0.ifo  vts_04_0.ifo

dvdrip/tmp/subtitles:
002-C001  002-C003  002-C005  002-C007  002-C009  002-C011  002-C013 
002-C015
002-C002  002-C004  002-C006  002-C008  002-C010  002-C012  002-C014 
002-C016

dvdrip/tmp/subtitles/002-C001:
00  01  02  03  04  05  06  07  08  09  10  11  12

dvdrip/tmp/subtitles/002-C001/00:
pic0001.png  pic0011.png  pic0021.png  pic0031.png  pic0041.png  pic0051.png
pic0002.png  pic0012.png  pic0022.png  pic0032.png  pic0042.png  pic0052.png
pic0003.png  pic0013.png  pic0023.png  pic0033.png  pic0043.png  pic0053.png
pic0004.png  pic0014.png  pic0024.png  pic0034.png  pic0044.png  pic0054.png
pic0005.png  pic0015.png  pic0025.png  pic0035.png  pic0045.png  pic.srtx
pic0006.png  pic0016.png  pic0026.png  pic0036.png  pic0046.png
pic0007.png  pic0017.png  pic0027.png  pic0037.png  pic0047.png
pic0008.png  pic0018.png  pic0028.png  pic0038.png  pic0048.png
pic0009.png  pic0019.png  pic0029.png  pic0039.png  pic0049.png
pic0010.png  pic0020.png  pic0030.png  pic0040.png  pic0050.png

dvdrip/tmp/subtitles/002-C001/01:
pic0001.png  pic0012.png  pic0023.png  pic0034.png  pic0045.png  pic0056.png
pic0002.png  pic0013.png  pic0024.png  pic0035.png  pic0046.png  pic0057.png
pic0003.png  pic0014.png  pic0025.png  pic0036.png  pic0047.png  pic0058.png
pic0004.png  pic0015.png  pic0026.png  pic0037.png  pic0048.png  pic0059.png
pic0005.png  pic0016.png  pic0027.png  pic0038.png  pic0049.png  pic0060.png
pic0006.png  pic0017.png  pic0028.png  pic0039.png  pic0050.png  pic0061.png
pic0007.png  pic0018.png  pic0029.png  pic0040.png  pic0051.png  pic0062.png
pic0008.png  pic0019.png  pic0030.png  pic0041.png  pic0052.png  pic0063.png
pic0009.png  pic0020.png  pic0031.png  pic0042.png  pic0053.png  pic0064.png
pic0010.png  pic0021.png  pic0032.png  pic0043.png  pic0054.png  pic.srtx
pic0011.png  pic0022.png  pic0033.png  pic0044.png  pic0055.png

dvdrip/tmp/subtitles/002-C001/02:
pic0001.png  pic0011.png  pic0021.png  pic0031.png  pic0041.png  pic0051.png
pic0002.png  pic0012.png  pic0022.png  pic0032.png  pic0042.png  pic0052.png
pic0003.png  pic0013.png  pic0023.png  pic0033.png  pic0043.png  pic0053.png
pic0004.png  pic0014.png  pic0024.png  pic0034.png  pic0044.png  pic0054.png
pic0005.png  pic0015.png  pic0025.png  pic0035.png  pic0045.png  pic0055.png
pic0006.png  pic0016.png  pic0026.png  pic0036.png  pic0046.png  pic0056.png
pic0007.png  pic0017.png  pic0027.png  pic0037.png  pic0047.png  pic0057.png
pic0008.png  pic0018.png  pic0028.png  pic0038.png  pic0048.png  pic0058.png
pic0009.png  pic0019.png  pic0029.png  pic0039.png  pic0049.png  pic.srtx
pic0010.png  pic0020.png  pic0030.png  pic0040.png  pic0050.png

dvdrip/tmp/subtitles/002-C001/03:
pic0001.png  pic0011.png  pic0021.png  pic0031.png  pic0041.png  pic0051.png
pic0002.png  pic0012.png  pic0022.png  pic0032.png  pic0042.png  pic0052.png
pic0003.png  pic0013.png  pic0023.png  pic0033.png  pic0043.png  pic0053.png
pic0004.png  pic0014.png  pic0024.png  pic0034.png  pic0044.png  pic0054.png
pic0005.png  pic0015.png  pic0025.png  pic0035.png  pic0045.png  pic0055.png
pic0006.png  pic0016.png  pic0026.png  pic0036.png  pic0046.png  pic0056.png
pic0007.png  pic0017.png  pic0027.png  pic0037.png  pic0047.png  pic0057.png
pic0008.png  pic0018.png  pic0028.png  pic0038.png  pic0048.png  pic0058.png
pic0009.png  pic0019.png  pic0029.png  pic0039.png  pic0049.png  pic.srtx
pic0010.png  pic0020.png  pic0030.png  pic0040.png  pic0050.png

dvdrip/tmp/subtitles/002-C001/04:
pic0001.png  pic0011.png  pic0021.png  pic0031.png  pic0041.png  pic0051.png
pic0002.png  pic0012.png  pic0022.png  pic0032.png  pic0042.png  pic0052.png
pic0003.png  pic0013.png  pic0023.png  pic0033.png  pic0043.png  pic0053.png
pic0004.png  pic0014.png  pic0024.png  pic0034.png  pic0044.png  pic0054.png
pic0005.png  pic0015.png  pic0025.png  pic0035.png  pic0045.png  pic0055.png
pic0006.png  pic0016.png  pic0026.png  pic0036.png  pic0046.png  pic0056.png
pic0007.png  pic0017.png  pic0027.png  pic0037.png  pic0047.png  pic0057.png
pic0008.png  pic0018.png  pic0028.png  pic0038.png  pic0048.png  pic0058.png
pic0009.png  pic0019.png  pic0029.png  pic0039.png  pic0049.png  pic.srtx
pic0010.png  pic0020.png  pic0030.png  pic0040.png  pic0050.png

dvdrip/tmp/subtitles/002-C001/05:
pic0001.png  pic0011.png  pic0021.png  pic0031.png  pic0041.png  pic0051.png
pic0002.png  pic0012.png  pic0022.png  pic0032.png  pic0042.png  pic0052.png
pic0003.png  pic0013.png  pic0023.png  pic0033.png  pic0043.png  pic0053.png
pic0004.png  pic0014.png  pic0024.png  pic0034.png  pic0044.png  pic0054.png
pic0005.png  pic0015.png  pic0025.png  pic0035.png  pic0045.png  pic0055.png
pic0006.png  pic0016.png  pic0026.png  pic0036.png  pic0046.png  pic0056.png
pic0007.png  pic0017.png  pic0027.png  pic0037.png  pic0047.png  pic0057.png
pic0008.png  pic0018.png  pic0028.png  pic0038.png  pic0048.png  pic0058.png
pic0009.png  pic0019.png  pic0029.png  pic0039.png  pic0049.png  pic.srtx
pic0010.png  pic0020.png  pic0030.png  pic0040.png  pic0050.png

dvdrip/tmp/subtitles/002-C001/06:
pic0001.png  pic0011.png  pic0021.png  pic0031.png  pic0041.png  pic0051.png
pic0002.png  pic0012.png  pic0022.png  pic0032.png  pic0042.png  pic0052.png
pic0003.png  pic0013.png  pic0023.png  pic0033.png  pic0043.png  pic0053.png
pic0004.png  pic0014.png  pic0024.png  pic0034.png  pic0044.png  pic0054.png
pic0005.png  pic0015.png  pic0025.png  pic0035.png  pic0045.png  pic0055.png
pic0006.png  pic0016.png  pic0026.png  pic0036.png  pic0046.png  pic0056.png
pic0007.png  pic0017.png  pic0027.png  pic0037.png  pic0047.png  pic0057.png
pic0008.png  pic0018.png  pic0028.png  pic0038.png  pic0048.png  pic0058.png
pic0009.png  pic0019.png  pic0029.png  pic0039.png  pic0049.png  pic.srtx
pic0010.png  pic0020.png  pic0030.png  pic0040.png  pic0050.png

dvdrip/tmp/subtitles/002-C001/07:
pic0001.png  pic0011.png  pic0021.png  pic0031.png  pic0041.png  pic0051.png
pic0002.png  pic0012.png  pic0022.png  pic0032.png  pic0042.png  pic0052.png
pic0003.png  pic0013.png  pic0023.png  pic0033.png  pic0043.png  pic0053.png
pic0004.png  pic0014.png  pic0024.png  pic0034.png  pic0044.png  pic0054.png
pic0005.png  pic0015.png  pic0025.png  pic0035.png  pic0045.png  pic0055.png
pic0006.png  pic0016.png  pic0026.png  pic0036.png  pic0046.png  pic0056.png
pic0007.png  pic0017.png  pic0027.png  pic0037.png  pic0047.png  pic.srtx
pic0008.png  pic0018.png  pic0028.png  pic0038.png  pic0048.png
pic0009.png  pic0019.png  pic0029.png  pic0039.png  pic0049.png
pic0010.png  pic0020.png  pic0030.png  pic0040.png  pic0050.png

dvdrip/tmp/subtitles/002-C001/08:
pic0001.png  pic0011.png  pic0021.png  pic0031.png  pic0041.png  pic0051.png
pic0002.png  pic0012.png  pic0022.png  pic0032.png  pic0042.png  pic0052.png
pic0003.png  pic0013.png  pic0023.png  pic0033.png  pic0043.png  pic0053.png
pic0004.png  pic0014.png  pic0024.png  pic0034.png  pic0044.png  pic0054.png
pic0005.png  pic0015.png  pic0025.png  pic0035.png  pic0045.png  pic.srtx
pic0006.png  pic0016.png  pic0026.png  pic0036.png  pic0046.png
pic0007.png  pic0017.png  pic0027.png  pic0037.png  pic0047.png
pic0008.png  pic0018.png  pic0028.png  pic0038.png  pic0048.png
pic0009.png  pic0019.png  pic0029.png  pic0039.png  pic0049.png
pic0010.png  pic0020.png  pic0030.png  pic0040.png  pic0050.png

dvdrip/tmp/subtitles/002-C001/09:
pic0001.png  pic0011.png  pic0021.png  pic0031.png  pic0041.png  pic0051.png
pic0002.png  pic0012.png  pic0022.png  pic0032.png  pic0042.png  pic0052.png
pic0003.png  pic0013.png  pic0023.png  pic0033.png  pic0043.png  pic0053.png
pic0004.png  pic0014.png  pic0024.png  pic0034.png  pic0044.png  pic0054.png
pic0005.png  pic0015.png  pic0025.png  pic0035.png  pic0045.png  pic0055.png
pic0006.png  pic0016.png  pic0026.png  pic0036.png  pic0046.png  pic0056.png
pic0007.png  pic0017.png  pic0027.png  pic0037.png  pic0047.png  pic0057.png
pic0008.png  pic0018.png  pic0028.png  pic0038.png  pic0048.png  pic0058.png
pic0009.png  pic0019.png  pic0029.png  pic0039.png  pic0049.png  pic.srtx
pic0010.png  pic0020.png  pic0030.png  pic0040.png  pic0050.png

dvdrip/tmp/subtitles/002-C001/10:
pic0001.png  pic0011.png  pic0021.png  pic0031.png  pic0041.png  pic0051.png
pic0002.png  pic0012.png  pic0022.png  pic0032.png  pic0042.png  pic0052.png
pic0003.png  pic0013.png  pic0023.png  pic0033.png  pic0043.png  pic0053.png
pic0004.png  pic0014.png  pic0024.png  pic0034.png  pic0044.png  pic0054.png
pic0005.png  pic0015.png  pic0025.png  pic0035.png  pic0045.png  pic0055.png
pic0006.png  pic0016.png  pic0026.png  pic0036.png  pic0046.png  pic0056.png
pic0007.png  pic0017.png  pic0027.png  pic0037.png  pic0047.png  pic0057.png
pic0008.png  pic0018.png  pic0028.png  pic0038.png  pic0048.png  pic0058.png
pic0009.png  pic0019.png  pic0029.png  pic0039.png  pic0049.png  pic.srtx
pic0010.png  pic0020.png  pic0030.png  pic0040.png  pic0050.png

dvdrip/tmp/subtitles/002-C001/11:
pic0001.png  pic0011.png  pic0021.png  pic0031.png  pic0041.png  pic0051.png
pic0002.png  pic0012.png  pic0022.png  pic0032.png  pic0042.png  pic0052.png
pic0003.png  pic0013.png  pic0023.png  pic0033.png  pic0043.png  pic0053.png
pic0004.png  pic0014.png  pic0024.png  pic0034.png  pic0044.png  pic0054.png
pic0005.png  pic0015.png  pic0025.png  pic0035.png  pic0045.png  pic0055.png
pic0006.png  pic0016.png  pic0026.png  pic0036.png  pic0046.png  pic0056.png
pic0007.png  pic0017.png  pic0027.png  pic0037.png  pic0047.png  pic0057.png
pic0008.png  pic0018.png  pic0028.png  pic0038.png  pic0048.png  pic0058.png
pic0009.png  pic0019.png  pic0029.png  pic0039.png  pic0049.png  pic.srtx
pic0010.png  pic0020.png  pic0030.png  pic0040.png  pic0050.png

dvdrip/tmp/subtitles/002-C001/12:
pic0001.png  pic0011.png  pic0021.png  pic0031.png  pic0041.png  pic0051.png
pic0002.png  pic0012.png  pic0022.png  pic0032.png  pic0042.png  pic0052.png
pic0003.png  pic0013.png  pic0023.png  pic0033.png  pic0043.png  pic0053.png
pic0004.png  pic0014.png  pic0024.png  pic0034.png  pic0044.png  pic0054.png
pic0005.png  pic0015.png  pic0025.png  pic0035.png  pic0045.png  pic0055.png
pic0006.png  pic0016.png  pic0026.png  pic0036.png  pic0046.png  pic0056.png
pic0007.png  pic0017.png  pic0027.png  pic0037.png  pic0047.png  pic0057.png
pic0008.png  pic0018.png  pic0028.png  pic0038.png  pic0048.png  pic0058.png
pic0009.png  pic0019.png  pic0029.png  pic0039.png  pic0049.png  pic.srtx
pic0010.png  pic0020.png  pic0030.png  pic0040.png  pic0050.png

dvdrip/tmp/subtitles/002-C002:
00  01  02  03  04  05  06  07  08  09  10  11  12

dvdrip/tmp/subtitles/002-C002/00:
pic0001.png  pic0017.png  pic0033.png  pic0049.png  pic0065.png  pic0081.png
pic0002.png  pic0018.png  pic0034.png  pic0050.png  pic0066.png  pic0082.png
pic0003.png  pic0019.png  pic0035.png  pic0051.png  pic0067.png  pic0083.png
pic0004.png  pic0020.png  pic0036.png  pic0052.png  pic0068.png  pic0084.png
pic0005.png  pic0021.png  pic0037.png  pic0053.png  pic0069.png  pic0085.png
pic0006.png  pic0022.png  pic0038.png  pic0054.png  pic0070.png  pic0086.png
pic0007.png  pic0023.png  pic0039.png  pic0055.png  pic0071.png  pic0087.png
pic0008.png  pic0024.png  pic0040.png  pic0056.png  pic0072.png  pic0088.png
pic0009.png  pic0025.png  pic0041.png  pic0057.png  pic0073.png  pic0089.png
pic0010.png  pic0026.png  pic0042.png  pic0058.png  pic0074.png  pic0090.png
pic0011.png  pic0027.png  pic0043.png  pic0059.png  pic0075.png  pic.srtx
pic0012.png  pic0028.png  pic0044.png  pic0060.png  pic0076.png
pic0013.png  pic0029.png  pic0045.png  pic0061.png  pic0077.png
pic0014.png  pic0030.png  pic0046.png  pic0062.png  pic0078.png
pic0015.png  pic0031.png  pic0047.png  pic0063.png  pic0079.png
pic0016.png  pic0032.png  pic0048.png  pic0064.png  pic0080.png

dvdrip/tmp/subtitles/002-C002/01:
pic0001.png  pic0017.png  pic0033.png  pic0049.png  pic0065.png  pic0081.png
pic0002.png  pic0018.png  pic0034.png  pic0050.png  pic0066.png  pic0082.png
pic0003.png  pic0019.png  pic0035.png  pic0051.png  pic0067.png  pic0083.png
pic0004.png  pic0020.png  pic0036.png  pic0052.png  pic0068.png  pic0084.png
pic0005.png  pic0021.png  pic0037.png  pic0053.png  pic0069.png  pic0085.png
pic0006.png  pic0022.png  pic0038.png  pic0054.png  pic0070.png  pic0086.png
pic0007.png  pic0023.png  pic0039.png  pic0055.png  pic0071.png  pic0087.png
pic0008.png  pic0024.png  pic0040.png  pic0056.png  pic0072.png  pic0088.png
pic0009.png  pic0025.png  pic0041.png  pic0057.png  pic0073.png  pic0089.png
pic0010.png  pic0026.png  pic0042.png  pic0058.png  pic0074.png  pic0090.png
pic0011.png  pic0027.png  pic0043.png  pic0059.png  pic0075.png  pic.srtx
pic0012.png  pic0028.png  pic0044.png  pic0060.png  pic0076.png
pic0013.png  pic0029.png  pic0045.png  pic0061.png  pic0077.png
pic0014.png  pic0030.png  pic0046.png  pic0062.png  pic0078.png
pic0015.png  pic0031.png  pic0047.png  pic0063.png  pic0079.png
pic0016.png  pic0032.png  pic0048.png  pic0064.png  pic0080.png

dvdrip/tmp/subtitles/002-C002/02:
pic0001.png  pic0016.png  pic0031.png  pic0046.png  pic0061.png  pic0076.png
pic0002.png  pic0017.png  pic0032.png  pic0047.png  pic0062.png  pic0077.png
pic0003.png  pic0018.png  pic0033.png  pic0048.png  pic0063.png  pic0078.png
pic0004.png  pic0019.png  pic0034.png  pic0049.png  pic0064.png  pic0079.png
pic0005.png  pic0020.png  pic0035.png  pic0050.png  pic0065.png  pic0080.png
pic0006.png  pic0021.png  pic0036.png  pic0051.png  pic0066.png  pic0081.png
pic0007.png  pic0022.png  pic0037.png  pic0052.png  pic0067.png  pic0082.png
pic0008.png  pic0023.png  pic0038.png  pic0053.png  pic0068.png  pic0083.png
pic0009.png  pic0024.png  pic0039.png  pic0054.png  pic0069.png  pic0084.png
pic0010.png  pic0025.png  pic0040.png  pic0055.png  pic0070.png  pic0085.png
pic0011.png  pic0026.png  pic0041.png  pic0056.png  pic0071.png  pic0086.png
pic0012.png  pic0027.png  pic0042.png  pic0057.png  pic0072.png  pic0087.png
pic0013.png  pic0028.png  pic0043.png  pic0058.png  pic0073.png  pic0088.png
pic0014.png  pic0029.png  pic0044.png  pic0059.png  pic0074.png  pic.srtx
pic0015.png  pic0030.png  pic0045.png  pic0060.png  pic0075.png

dvdrip/tmp/subtitles/002-C002/03:
pic0001.png  pic0016.png  pic0031.png  pic0046.png  pic0061.png  pic0076.png
pic0002.png  pic0017.png  pic0032.png  pic0047.png  pic0062.png  pic0077.png
pic0003.png  pic0018.png  pic0033.png  pic0048.png  pic0063.png  pic0078.png
pic0004.png  pic0019.png  pic0034.png  pic0049.png  pic0064.png  pic0079.png
pic0005.png  pic0020.png  pic0035.png  pic0050.png  pic0065.png  pic0080.png
pic0006.png  pic0021.png  pic0036.png  pic0051.png  pic0066.png  pic0081.png
pic0007.png  pic0022.png  pic0037.png  pic0052.png  pic0067.png  pic0082.png
pic0008.png  pic0023.png  pic0038.png  pic0053.png  pic0068.png  pic0083.png
pic0009.png  pic0024.png  pic0039.png  pic0054.png  pic0069.png  pic0084.png
pic0010.png  pic0025.png  pic0040.png  pic0055.png  pic0070.png  pic0085.png
pic0011.png  pic0026.png  pic0041.png  pic0056.png  pic0071.png  pic0086.png
pic0012.png  pic0027.png  pic0042.png  pic0057.png  pic0072.png  pic0087.png
pic0013.png  pic0028.png  pic0043.png  pic0058.png  pic0073.png  pic0088.png
pic0014.png  pic0029.png  pic0044.png  pic0059.png  pic0074.png  pic.srtx
pic0015.png  pic0030.png  pic0045.png  pic0060.png  pic0075.png

dvdrip/tmp/subtitles/002-C002/04:
pic0001.png  pic0016.png  pic0031.png  pic0046.png  pic0061.png  pic0076.png
pic0002.png  pic0017.png  pic0032.png  pic0047.png  pic0062.png  pic0077.png
pic0003.png  pic0018.png  pic0033.png  pic0048.png  pic0063.png  pic0078.png
pic0004.png  pic0019.png  pic0034.png  pic0049.png  pic0064.png  pic0079.png
pic0005.png  pic0020.png  pic0035.png  pic0050.png  pic0065.png  pic0080.png
pic0006.png  pic0021.png  pic0036.png  pic0051.png  pic0066.png  pic0081.png
pic0007.png  pic0022.png  pic0037.png  pic0052.png  pic0067.png  pic0082.png
pic0008.png  pic0023.png  pic0038.png  pic0053.png  pic0068.png  pic0083.png
pic0009.png  pic0024.png  pic0039.png  pic0054.png  pic0069.png  pic0084.png
pic0010.png  pic0025.png  pic0040.png  pic0055.png  pic0070.png  pic0085.png
pic0011.png  pic0026.png  pic0041.png  pic0056.png  pic0071.png  pic0086.png
pic0012.png  pic0027.png  pic0042.png  pic0057.png  pic0072.png  pic0087.png
pic0013.png  pic0028.png  pic0043.png  pic0058.png  pic0073.png  pic0088.png
pic0014.png  pic0029.png  pic0044.png  pic0059.png  pic0074.png  pic.srtx
pic0015.png  pic0030.png  pic0045.png  pic0060.png  pic0075.png

dvdrip/tmp/subtitles/002-C002/05:
pic0001.png  pic0016.png  pic0031.png  pic0046.png  pic0061.png  pic0076.png
pic0002.png  pic0017.png  pic0032.png  pic0047.png  pic0062.png  pic0077.png
pic0003.png  pic0018.png  pic0033.png  pic0048.png  pic0063.png  pic0078.png
pic0004.png  pic0019.png  pic0034.png  pic0049.png  pic0064.png  pic0079.png
pic0005.png  pic0020.png  pic0035.png  pic0050.png  pic0065.png  pic0080.png
pic0006.png  pic0021.png  pic0036.png  pic0051.png  pic0066.png  pic0081.png
pic0007.png  pic0022.png  pic0037.png  pic0052.png  pic0067.png  pic0082.png
pic0008.png  pic0023.png  pic0038.png  pic0053.png  pic0068.png  pic0083.png
pic0009.png  pic0024.png  pic0039.png  pic0054.png  pic0069.png  pic0084.png
pic0010.png  pic0025.png  pic0040.png  pic0055.png  pic0070.png  pic0085.png
pic0011.png  pic0026.png  pic0041.png  pic0056.png  pic0071.png  pic0086.png
pic0012.png  pic0027.png  pic0042.png  pic0057.png  pic0072.png  pic0087.png
pic0013.png  pic0028.png  pic0043.png  pic0058.png  pic0073.png  pic0088.png
pic0014.png  pic0029.png  pic0044.png  pic0059.png  pic0074.png  pic.srtx
pic0015.png  pic0030.png  pic0045.png  pic0060.png  pic0075.png

dvdrip/tmp/subtitles/002-C002/06:

[.....]

dvdrip/tmp/subtitles/002-C016/08:
pic0001.png  pic0006.png  pic0011.png  pic0016.png  pic0021.png  pic.srtx
pic0002.png  pic0007.png  pic0012.png  pic0017.png  pic0022.png
pic0003.png  pic0008.png  pic0013.png  pic0018.png  pic0023.png
pic0004.png  pic0009.png  pic0014.png  pic0019.png  pic0024.png
pic0005.png  pic0010.png  pic0015.png  pic0020.png  pic0025.png

dvdrip/tmp/subtitles/002-C016/09:
pic0001.png  pic0006.png  pic0011.png  pic0016.png  pic0021.png  pic0026.png
pic0002.png  pic0007.png  pic0012.png  pic0017.png  pic0022.png  pic.srtx
pic0003.png  pic0008.png  pic0013.png  pic0018.png  pic0023.png
pic0004.png  pic0009.png  pic0014.png  pic0019.png  pic0024.png
pic0005.png  pic0010.png  pic0015.png  pic0020.png  pic0025.png

dvdrip/tmp/subtitles/002-C016/10:
pic0001.png  pic0006.png  pic0011.png  pic0016.png  pic0021.png  pic0026.png
pic0002.png  pic0007.png  pic0012.png  pic0017.png  pic0022.png  pic.srtx
pic0003.png  pic0008.png  pic0013.png  pic0018.png  pic0023.png
pic0004.png  pic0009.png  pic0014.png  pic0019.png  pic0024.png
pic0005.png  pic0010.png  pic0015.png  pic0020.png  pic0025.png

dvdrip/tmp/subtitles/002-C016/11:
pic0001.png  pic0006.png  pic0011.png  pic0016.png  pic0021.png  pic0026.png
pic0002.png  pic0007.png  pic0012.png  pic0017.png  pic0022.png  pic.srtx
pic0003.png  pic0008.png  pic0013.png  pic0018.png  pic0023.png
pic0004.png  pic0009.png  pic0014.png  pic0019.png  pic0024.png
pic0005.png  pic0010.png  pic0015.png  pic0020.png  pic0025.png

dvdrip/tmp/subtitles/002-C016/12:
pic0001.png  pic0006.png  pic0011.png  pic0016.png  pic0021.png  pic0026.png
pic0002.png  pic0007.png  pic0012.png  pic0017.png  pic0022.png  pic.srtx
pic0003.png  pic0008.png  pic0013.png  pic0018.png  pic0023.png
pic0004.png  pic0009.png  pic0014.png  pic0019.png  pic0024.png
pic0005.png  pic0010.png  pic0015.png  pic0020.png  pic0025.png

_______________________________________________
ffmpeg-user mailing list
[hidden email]
http://ffmpeg.org/mailman/listinfo/ffmpeg-user

To unsubscribe, visit link above, or email
[hidden email] with subject "unsubscribe".
Reply | Threaded
Open this post in threaded view
|

Re: How to copy all of 5 audio streams to mp4 file

kumowoon1025
In reply to this post by Ulf Zibis
> I got the same results with that. Does it matter at which position I put
> these arguments and does it last to use only one of the two?

I’m pretty sure probe size and analyze duration are per file, put it before the input. And they are both limits, so I think you need to use both (if you don’t, the default value for the unspecified one will be limiting).

> When I look at dvd::rip, which I used to rip the DVD, it seems that
> there are used images for the subtitles and when I invoke "create
> vobsub" I get a bunch of files, where I don't know how to process with
> ffmpeg. Can you give me another hint?
Use the index file as the input, you might have gotten one file for each track/language? Also you should keep in mind that you can copy bitmap subtitles into mp4 but how to handle them isn’t universally defined like say, ttml tracks.
_______________________________________________
ffmpeg-user mailing list
[hidden email]
http://ffmpeg.org/mailman/listinfo/ffmpeg-user

To unsubscribe, visit link above, or email
[hidden email] with subject "unsubscribe".
Reply | Threaded
Open this post in threaded view
|

Re: How to copy all of 5 audio streams to mp4 file

Ulf Zibis
Thanks Ted.

Am 18.02.19 um 19:59 schrieb Ted Park:
>> I got the same results with that. Does it matter at which position I put
>> these arguments and does it last to use only one of the two?
> I’m pretty sure probe size and analyze duration are per file, put it before the input. And they are both limits, so I think you need to use both (if you don’t, the default value for the unspecified one will be limiting).

You are right. My 1st attempt was only with "-probesize
9223372036854775807" before the "-i input", which resulted as same as
both after "-i input". Now I get a different result (the process used
over 6 GB memory, so my machine heavily swapped, but was successful in
the end), but with an error. So what to do with this error?

$ ffmpeg -probesize 9223372036854775807 -analyzeduration 7000000000 -i
"concat:002-C001/VLuN-001.vob|002-C002/VLuN-001.vob|002-C003/VLuN-001.vob|002-C004/VLuN-001.vob|002-C005/VLuN-001.vob|002-C006/VLuN-001.vob|002-C007/VLuN-001.vob|002-C008/VLuN-001.vob|002-C009/VLuN-001.vob|002-C010/VLuN-001.vob|002-C011/VLuN-001.vob|002-C012/VLuN-001.vob|002-C013/VLuN-001.vob|002-C014/VLuN-001.vob|002-C015/VLuN-001.vob|002-C016/VLuN-001.vob"
-map 0 -vf crop=720:552 -c:v libx264 -c:a copy -t 06:00 -movflags
+faststart /media/Sicherung/Filme/VLuN/ffmpeg/002/VLuN_6m.mp4
ffmpeg version 4.1-static https://johnvansickle.com/ffmpeg/  Copyright
(c) 2000-2018 the FFmpeg developers
  built with gcc 6.3.0 (Debian 6.3.0-18+deb9u1) 20170516
[.....]
Input #0, mpeg, from
'concat:002-C001/VLuN-001.vob|002-C002/VLuN-001.vob|002-C003/VLuN-001.vob|002-C004/VLuN-001.vob|002-C005/VLuN-001.vob|002-C006/VLuN-001.vob|002-C007/VLuN-001.vob|002-C008/VLuN-001.vob|002-C009/VLuN-001.vob|002-C010/VLuN-001.vob|002-C011/VLuN-001.vob|002-C012/VLuN-001.vob|002-C013/VLuN-001.vob|002-C014/VLuN-001.vob|002-C015/VLuN-001.vob|002-C016/VLuN-001.vob':
  Duration: 01:46:25.22, start: 0.280000, bitrate: 7663 kb/s
    Stream #0:0[0x1e0]: Video: mpeg2video (Main), yuv420p(tv, top
first), 720x576 [SAR 64:45 DAR 16:9], 25 fps, 25 tbr, 90k tbn, 50 tbc
    Stream #0:1[0x80]: Audio: ac3, 48000 Hz, stereo, fltp, 192 kb/s
    Stream #0:2[0x81]: Audio: ac3, 48000 Hz, stereo, fltp, 192 kb/s
    Stream #0:3[0x82]: Audio: ac3, 48000 Hz, stereo, fltp, 192 kb/s
    Stream #0:4[0x83]: Audio: ac3, 48000 Hz, stereo, fltp, 192 kb/s
    Stream #0:5[0x84]: Audio: ac3, 48000 Hz, stereo, fltp, 192 kb/s
    Stream #0:6[0x26]: Subtitle: dvd_subtitle
    Stream #0:7[0x20]: Subtitle: dvd_subtitle
    Stream #0:8[0x21]: Subtitle: dvd_subtitle
    Stream #0:9[0x22]: Subtitle: dvd_subtitle
    Stream #0:10[0x24]: Subtitle: dvd_subtitle
    Stream #0:11[0x25]: Subtitle: dvd_subtitle
    Stream #0:12[0x27]: Subtitle: dvd_subtitle
    Stream #0:13[0x28]: Subtitle: dvd_subtitle
    Stream #0:14[0x29]: Subtitle: dvd_subtitle
    Stream #0:15[0x2a]: Subtitle: dvd_subtitle
    Stream #0:16[0x2b]: Subtitle: dvd_subtitle
    Stream #0:17[0x2c]: Subtitle: dvd_subtitle
    Stream #0:18[0x23]: Subtitle: dvd_subtitle
Automatic encoder selection failed for output stream #0:6. Default
encoder for format mp4 (codec none) is probably disabled. Please choose
an encoder manually.
Error selecting an encoder for stream 0:6

>> When I look at dvd::rip, which I used to rip the DVD, it seems that
>> there are used images for the subtitles and when I invoke "create
>> vobsub" I get a bunch of files, where I don't know how to process with
>> ffmpeg. Can you give me another hint?
> Use the index file as the input, you might have gotten one file for each track/language? Also you should keep in mind that you can copy bitmap subtitles into mp4 but how to handle them isn’t universally defined like say, ttml tracks.
I guess you mean the files named "pic.srtx". But what should I do with
them? The content looks like:
1
00:00:31,160 --> 00:00:34,429
/media/Sicherung/Filme/VLuN/dvdrip/tmp/subtitles/002-C001/00/pic0001.pgm.txt

2
00:01:36,359 --> 00:01:38,310
/media/Sicherung/Filme/VLuN/dvdrip/tmp/subtitles/002-C001/00/pic0002.pgm.txt

3
00:01:44,680 --> 00:01:48,030
/media/Sicherung/Filme/VLuN/dvdrip/tmp/subtitles/002-C001/00/pic0003.pgm.txt

4
00:01:48,239 --> 00:01:50,189
/media/Sicherung/Filme/VLuN/dvdrip/tmp/subtitles/002-C001/00/pic0004.pgm.txt

5
00:01:50,400 --> 00:01:52,349
/media/Sicherung/Filme/VLuN/dvdrip/tmp/subtitles/002-C001/00/pic0005.pgm.txt

6
00:01:52,560 --> 00:01:55,829
/media/Sicherung/Filme/VLuN/dvdrip/tmp/subtitles/002-C001/00/pic0006.pgm.txt

[.....]

54
00:05:09,759 --> 00:05:12,470
/media/Sicherung/Filme/VLuN/dvdrip/tmp/subtitles/002-C001/00/pic0054.pgm.txt

-Ulf

_______________________________________________
ffmpeg-user mailing list
[hidden email]
http://ffmpeg.org/mailman/listinfo/ffmpeg-user

To unsubscribe, visit link above, or email
[hidden email] with subject "unsubscribe".
Reply | Threaded
Open this post in threaded view
|

Re: How to copy all of 5 audio streams to mp4 file

Moritz Barsnick
On Mon, Feb 18, 2019 at 21:13:29 +0100, Ulf Zibis wrote:
> over 6 GB memory, so my machine heavily swapped

Probably okay if you reduce the -probesize and -analyzeduration to fit
your file. Sorry, it's a bit hit and miss.

>     Stream #0:6[0x26]: Subtitle: dvd_subtitle
>     Stream #0:7[0x20]: Subtitle: dvd_subtitle
>     Stream #0:8[0x21]: Subtitle: dvd_subtitle
>     Stream #0:9[0x22]: Subtitle: dvd_subtitle
>     Stream #0:10[0x24]: Subtitle: dvd_subtitle
>     Stream #0:11[0x25]: Subtitle: dvd_subtitle
>     Stream #0:12[0x27]: Subtitle: dvd_subtitle
>     Stream #0:13[0x28]: Subtitle: dvd_subtitle
>     Stream #0:14[0x29]: Subtitle: dvd_subtitle
>     Stream #0:15[0x2a]: Subtitle: dvd_subtitle
>     Stream #0:16[0x2b]: Subtitle: dvd_subtitle
>     Stream #0:17[0x2c]: Subtitle: dvd_subtitle
>     Stream #0:18[0x23]: Subtitle: dvd_subtitle
> Automatic encoder selection failed for output stream #0:6. Default
> encoder for format mp4 (codec none) is probably disabled. Please choose
> an encoder manually.
> Error selecting an encoder for stream 0:6

Exactly as Ted said (and I had forgotten). There are basically two
classes of subtitle streams: text and bitmap. ffmpeg cannot
convert/encode the latter to the former. The format mp4 does not
support any type of bitmap subtitles (to my knowledge), so you either
need a different tool to convert them to text (which is tedious), or
select a different output container. Matroska should be able to carry
them.

> I guess you mean the files named "pic.srtx". But what should I do with
> them? The content looks like:
> 1
> 00:00:31,160 --> 00:00:34,429
> /media/Sicherung/Filme/VLuN/dvdrip/tmp/subtitles/002-C001/00/pic0001.pgm.txt

What's in these files? Are they really text? (I hadn't heard of srtx so
far.)

Moritz
_______________________________________________
ffmpeg-user mailing list
[hidden email]
http://ffmpeg.org/mailman/listinfo/ffmpeg-user

To unsubscribe, visit link above, or email
[hidden email] with subject "unsubscribe".
Reply | Threaded
Open this post in threaded view
|

Re: How to copy all of 5 audio streams to mp4 file

Ulf Zibis
Hi Moritz,

Am 18.02.19 um 22:02 schrieb Moritz Barsnick:
> On Mon, Feb 18, 2019 at 21:13:29 +0100, Ulf Zibis wrote:
>> over 6 GB memory, so my machine heavily swapped
> Probably okay if you reduce the -probesize and -analyzeduration to fit
> your file. Sorry, it's a bit hit and miss.

Yes, it was enough to set -analyzeduration to 15 min.(the input vob
chunks vary between 3 to 12 min.).

> Exactly as Ted said (and I had forgotten). There are basically two
> classes of subtitle streams: text and bitmap. ffmpeg cannot
> convert/encode the latter to the former. The format mp4 does not
> support any type of bitmap subtitles (to my knowledge), so you either
> need a different tool to convert them to text (which is tedious), or
> select a different output container. Matroska should be able to carry
> them.

Thanks! I tried Matroska. Only a little nit seems to be missing. Another
idea? :
$ ffmpeg -probesize 9223372036854775807 -analyzeduration 900000000 -i
"concat:002-C001/VLuN-001.vob|002-C002/VLuN-001.vob|002-C003/VLuN-001.vob|002-C004/VLuN-001.vob|002-C005/VLuN-001.vob|002-C006/VLuN-001.vob|002-C007/VLuN-001.vob|002-C008/VLuN-001.vob|002-C009/VLuN-001.vob|002-C010/VLuN-001.vob|002-C011/VLuN-001.vob|002-C012/VLuN-001.vob|002-C013/VLuN-001.vob|002-C014/VLuN-001.vob|002-C015/VLuN-001.vob|002-C016/VLuN-001.vob"
-map 0 -vf crop=720:552 -c:v libx264 -c:a copy -t 06:00 -movflags
+faststart /media/Sicherung/Filme/VLuN/ffmpeg/002/VLuN_6m.mkv
ffmpeg version 4.1-static https://johnvansickle.com/ffmpeg/  Copyright
(c) 2000-2018 the FFmpeg developers
  built with gcc 6.3.0 (Debian 6.3.0-18+deb9u1) 20170516
[.....]
Input #0, mpeg, from
'concat:002-C001/VLuN-001.vob|002-C002/VLuN-001.vob|002-C003/VLuN-001.vob|002-C004/VLuN-001.vob|002-C005/VLuN-001.vob|002-C006/VLuN-001.vob|002-C007/VLuN-001.vob|002-C008/VLuN-001.vob|002-C009/VLuN-001.vob|002-C010/VLuN-001.vob|002-C011/VLuN-001.vob|002-C012/VLuN-001.vob|002-C013/VLuN-001.vob|002-C014/VLuN-001.vob|002-C015/VLuN-001.vob|002-C016/VLuN-001.vob':
  Duration: 01:46:25.22, start: 0.280000, bitrate: 7663 kb/s
    Stream #0:0[0x1e0]: Video: mpeg2video (Main), yuv420p(tv, top
first), 720x576 [SAR 64:45 DAR 16:9], 25 fps, 25 tbr, 90k tbn, 50 tbc
    Stream #0:1[0x80]: Audio: ac3, 48000 Hz, stereo, fltp, 192 kb/s
    Stream #0:2[0x81]: Audio: ac3, 48000 Hz, stereo, fltp, 192 kb/s
    Stream #0:3[0x82]: Audio: ac3, 48000 Hz, stereo, fltp, 192 kb/s
    Stream #0:4[0x83]: Audio: ac3, 48000 Hz, stereo, fltp, 192 kb/s
    Stream #0:5[0x84]: Audio: ac3, 48000 Hz, stereo, fltp, 192 kb/s
    Stream #0:6[0x26]: Subtitle: dvd_subtitle
    Stream #0:7[0x20]: Subtitle: dvd_subtitle
    Stream #0:8[0x21]: Subtitle: dvd_subtitle
    Stream #0:9[0x22]: Subtitle: dvd_subtitle
    Stream #0:10[0x24]: Subtitle: dvd_subtitle
    Stream #0:11[0x25]: Subtitle: dvd_subtitle
    Stream #0:12[0x27]: Subtitle: dvd_subtitle
    Stream #0:13[0x28]: Subtitle: dvd_subtitle
    Stream #0:14[0x29]: Subtitle: dvd_subtitle
    Stream #0:15[0x2a]: Subtitle: dvd_subtitle
    Stream #0:16[0x2b]: Subtitle: dvd_subtitle
    Stream #0:17[0x2c]: Subtitle: dvd_subtitle
    Stream #0:18[0x23]: Subtitle: dvd_subtitle
Stream mapping:
  Stream #0:0 -> #0:0 (mpeg2video (native) -> h264 (libx264))
  Stream #0:1 -> #0:1 (copy)
  Stream #0:2 -> #0:2 (copy)
  Stream #0:3 -> #0:3 (copy)
  Stream #0:4 -> #0:4 (copy)
  Stream #0:5 -> #0:5 (copy)
  Stream #0:6 -> #0:6 (dvd_subtitle (dvdsub) -> ass (ssa))
  Stream #0:7 -> #0:7 (dvd_subtitle (dvdsub) -> ass (ssa))
  Stream #0:8 -> #0:8 (dvd_subtitle (dvdsub) -> ass (ssa))
  Stream #0:9 -> #0:9 (dvd_subtitle (dvdsub) -> ass (ssa))
  Stream #0:10 -> #0:10 (dvd_subtitle (dvdsub) -> ass (ssa))
  Stream #0:11 -> #0:11 (dvd_subtitle (dvdsub) -> ass (ssa))
  Stream #0:12 -> #0:12 (dvd_subtitle (dvdsub) -> ass (ssa))
  Stream #0:13 -> #0:13 (dvd_subtitle (dvdsub) -> ass (ssa))
  Stream #0:14 -> #0:14 (dvd_subtitle (dvdsub) -> ass (ssa))
  Stream #0:15 -> #0:15 (dvd_subtitle (dvdsub) -> ass (ssa))
  Stream #0:16 -> #0:16 (dvd_subtitle (dvdsub) -> ass (ssa))
  Stream #0:17 -> #0:17 (dvd_subtitle (dvdsub) -> ass (ssa))
  Stream #0:18 -> #0:18 (dvd_subtitle (dvdsub) -> ass (ssa))
Subtitle encoding currently only possible from text to text or bitmap to
bitmap

> What's in these files? Are they really text? (I hadn't heard of srtx so
> far.)
Yes, they are really text. Seem to be an intermediate data file for
dvd::rip. I guess, they record the timestamps for the bitmap subtitles.
_______________________________________________
ffmpeg-user mailing list
[hidden email]
http://ffmpeg.org/mailman/listinfo/ffmpeg-user

To unsubscribe, visit link above, or email
[hidden email] with subject "unsubscribe".
Reply | Threaded
Open this post in threaded view
|

Re: How to copy all of 5 audio streams to mp4 file

kumowoon1025
In reply to this post by Ulf Zibis
> I guess you mean the files named "pic.srtx". But what should I do with
> them? The content looks like:
> 1
> 00:00:31,160 --> 00:00:34,429
> /media/Sicherung/Filme/VLuN/dvdrip/tmp/subtitles/002-C001/00/pic0001.pgm.txt

Those look like srt.. Maybe it is doing OCR on the vobsubs and producing text files? I haven’t seen “srtx” files but it must be some variant that has references to the subtitle text instead of the actual text. Try to convert it to regular srt, and ffmpeg can convert it into a compatible format for mp4.
_______________________________________________
ffmpeg-user mailing list
[hidden email]
http://ffmpeg.org/mailman/listinfo/ffmpeg-user

To unsubscribe, visit link above, or email
[hidden email] with subject "unsubscribe".
Reply | Threaded
Open this post in threaded view
|

Re: How to copy all of 5 audio streams to mp4 file

Ulf Zibis
In reply to this post by Ulf Zibis
Hi Moritz,

Am 18.02.19 um 22:27 schrieb Ulf Zibis:
>> What's in these files? Are they really text? (I hadn't heard of srtx so
>> far.)
> Yes, they are really text. Seem to be an intermediate data file for
> dvd::rip. I guess, they record the timestamps for the bitmap subtitles.
Oops, I'm sorry, I misinterpreted your question.
Those pic.srtx files are text files, but the *.pgm.txt files, they are
pointing to, do not really exist, there are only *.png files. I attach
some of them. They seem scrambled somehow, so will be useless as source
for OCR.

Somebody knows to assemble the recipe from the puzzle pieces to complete
images?

-Ulf


_______________________________________________
ffmpeg-user mailing list
[hidden email]
http://ffmpeg.org/mailman/listinfo/ffmpeg-user

To unsubscribe, visit link above, or email
[hidden email] with subject "unsubscribe".

pic0001.png (768 bytes) Download Attachment
pic0002.png (644 bytes) Download Attachment
pic0003.png (928 bytes) Download Attachment
pic0004.png (874 bytes) Download Attachment
pic0005.png (648 bytes) Download Attachment
pic0006.png (842 bytes) Download Attachment
pic0007.png (800 bytes) Download Attachment
pic0008.png (612 bytes) Download Attachment
pic0009.png (590 bytes) Download Attachment
pic0010.png (822 bytes) Download Attachment
pic0011.png (648 bytes) Download Attachment
pic0012.png (616 bytes) Download Attachment
pic0013.png (792 bytes) Download Attachment
pic0014.png (920 bytes) Download Attachment
pic0015.png (734 bytes) Download Attachment
pic0016.png (722 bytes) Download Attachment
pic0017.png (512 bytes) Download Attachment
pic0018.png (596 bytes) Download Attachment
pic0019.png (1K) Download Attachment
pic0020.png (998 bytes) Download Attachment
pic0021.png (1K) Download Attachment
pic0022.png (784 bytes) Download Attachment
pic0023.png (1K) Download Attachment
pic0024.png (944 bytes) Download Attachment
pic0025.png (648 bytes) Download Attachment
pic0026.png (1K) Download Attachment
pic0027.png (1K) Download Attachment
Reply | Threaded
Open this post in threaded view
|

Re: How to copy all of 5 audio streams to mp4 file

Carl Eugen Hoyos-2
In reply to this post by Ulf Zibis
2019-02-18 22:27 GMT+01:00, Ulf Zibis <[hidden email]>:

>   Stream #0:6 -> #0:6 (dvd_subtitle (dvdsub) -> ass (ssa))
>   Stream #0:7 -> #0:7 (dvd_subtitle (dvdsub) -> ass (ssa))
>   Stream #0:8 -> #0:8 (dvd_subtitle (dvdsub) -> ass (ssa))
>   Stream #0:9 -> #0:9 (dvd_subtitle (dvdsub) -> ass (ssa))
>   Stream #0:10 -> #0:10 (dvd_subtitle (dvdsub) -> ass (ssa))
>   Stream #0:11 -> #0:11 (dvd_subtitle (dvdsub) -> ass (ssa))
>   Stream #0:12 -> #0:12 (dvd_subtitle (dvdsub) -> ass (ssa))
>   Stream #0:13 -> #0:13 (dvd_subtitle (dvdsub) -> ass (ssa))
>   Stream #0:14 -> #0:14 (dvd_subtitle (dvdsub) -> ass (ssa))
>   Stream #0:15 -> #0:15 (dvd_subtitle (dvdsub) -> ass (ssa))
>   Stream #0:16 -> #0:16 (dvd_subtitle (dvdsub) -> ass (ssa))
>   Stream #0:17 -> #0:17 (dvd_subtitle (dvdsub) -> ass (ssa))
>   Stream #0:18 -> #0:18 (dvd_subtitle (dvdsub) -> ass (ssa))

Missing -scodec copy

Please do not cut the console output, Carl Eugen
_______________________________________________
ffmpeg-user mailing list
[hidden email]
http://ffmpeg.org/mailman/listinfo/ffmpeg-user

To unsubscribe, visit link above, or email
[hidden email] with subject "unsubscribe".
Reply | Threaded
Open this post in threaded view
|

Re: How to copy all of 5 audio streams to mp4 file

Ulf Zibis

Am 19.02.19 um 00:28 schrieb Carl Eugen Hoyos:

> 2019-02-18 22:27 GMT+01:00, Ulf Zibis <[hidden email]>:
>
>>   Stream #0:6 -> #0:6 (dvd_subtitle (dvdsub) -> ass (ssa))
>>   Stream #0:7 -> #0:7 (dvd_subtitle (dvdsub) -> ass (ssa))
>>   Stream #0:8 -> #0:8 (dvd_subtitle (dvdsub) -> ass (ssa))
>>   Stream #0:9 -> #0:9 (dvd_subtitle (dvdsub) -> ass (ssa))
>>   Stream #0:10 -> #0:10 (dvd_subtitle (dvdsub) -> ass (ssa))
>>   Stream #0:11 -> #0:11 (dvd_subtitle (dvdsub) -> ass (ssa))
>>   Stream #0:12 -> #0:12 (dvd_subtitle (dvdsub) -> ass (ssa))
>>   Stream #0:13 -> #0:13 (dvd_subtitle (dvdsub) -> ass (ssa))
>>   Stream #0:14 -> #0:14 (dvd_subtitle (dvdsub) -> ass (ssa))
>>   Stream #0:15 -> #0:15 (dvd_subtitle (dvdsub) -> ass (ssa))
>>   Stream #0:16 -> #0:16 (dvd_subtitle (dvdsub) -> ass (ssa))
>>   Stream #0:17 -> #0:17 (dvd_subtitle (dvdsub) -> ass (ssa))
>>   Stream #0:18 -> #0:18 (dvd_subtitle (dvdsub) -> ass (ssa))
> Missing -scodec copy
Hey great, it works!

I note, that those composed PNG bitmaps consume 10 % of the footprint of
the video. Is there a possibility to compress them to e.g. JPEG?

In the subtitle menu they appear as "Title 2", "Title 2" ... Can I
denote them with "English", "German" etc..?

> Please do not cut the console output, Carl Eugen

Ok, I will look at that.

-Ulf

_______________________________________________
ffmpeg-user mailing list
[hidden email]
http://ffmpeg.org/mailman/listinfo/ffmpeg-user

To unsubscribe, visit link above, or email
[hidden email] with subject "unsubscribe".
Reply | Threaded
Open this post in threaded view
|

Re: How to copy all of 5 audio streams to mp4 file

Carl Zwanzig
On 2/18/2019 4:03 PM, Ulf Zibis wrote:
> I note, that those composed PNG bitmaps consume 10 % of the footprint of
> the video. Is there a possibility to compress them to e.g. JPEG?

PNG _is_ compressed, it's just a different algorithm from JPEG (or GIF).

z!
_______________________________________________
ffmpeg-user mailing list
[hidden email]
http://ffmpeg.org/mailman/listinfo/ffmpeg-user

To unsubscribe, visit link above, or email
[hidden email] with subject "unsubscribe".
Reply | Threaded
Open this post in threaded view
|

Re: How to copy all of 5 audio streams to mp4 file

Ulf Zibis

Am 19.02.19 um 06:46 schrieb Carl Zwanzig:
> On 2/18/2019 4:03 PM, Ulf Zibis wrote:
>> I note, that those composed PNG bitmaps consume 10 % of the footprint of
>> the video. Is there a possibility to compress them to e.g. JPEG?
>
> PNG _is_ compressed, it's just a different algorithm from JPEG (or GIF).

Yes, I know, and for monochrome images it compresses much better. But
I'm wondering about the scrambled content and the huge amout of PNG
files in the ripped data, so it seems to me, that each subtitle pic
becomes somehow decrypted from many PNG fragments which unfortunately
fill 10 % of the entire stream.

-Ulf

_______________________________________________
ffmpeg-user mailing list
[hidden email]
http://ffmpeg.org/mailman/listinfo/ffmpeg-user

To unsubscribe, visit link above, or email
[hidden email] with subject "unsubscribe".
Reply | Threaded
Open this post in threaded view
|

Re: How to copy all of 5 audio streams to mp4 file

kumowoon1025
> Yes, I know, and for monochrome images it compresses much better. But
> I'm wondering about the scrambled content and the huge amout of PNG
> files in the ripped data, so it seems to me, that each subtitle pic
> becomes somehow decrypted from many PNG fragments which unfortunately
> fill 10 % of the entire stream.

JPEG isn’t a bitmap format. And those png’s aren’t encrypted, they are regular (more or less) black and white bitmaps. On a commercial pressed dvd it would have been kind a wireframe that the subtitles are built on using color info from the program it’s in. So ~10% isn’t too bad when it’s pulled out as something independently decodable. You can ocr the text, but if you are wanting to archive the original bitmap based subs, not much that can be done. There’s no easy way to weave it back in as subpicture either, not a reversible process.
_______________________________________________
ffmpeg-user mailing list
[hidden email]
http://ffmpeg.org/mailman/listinfo/ffmpeg-user

To unsubscribe, visit link above, or email
[hidden email] with subject "unsubscribe".
Reply | Threaded
Open this post in threaded view
|

Re: How to copy all of 5 audio streams to mp4 file

Ulf Zibis
Hi Ted,

Am 19.02.19 um 17:14 schrieb Ted Park:
>> Yes, I know, and for monochrome images it compresses much better. But
>> I'm wondering about the scrambled content and the huge amout of PNG
>> files in the ripped data, so it seems to me, that each subtitle pic
>> becomes somehow decrypted from many PNG fragments which unfortunately
>> fill 10 % of the entire stream.
> JPEG isn’t a bitmap format. And those png’s aren’t encrypted, they are regular (more or less) black and white bitmaps. On a commercial pressed dvd it would have been kind a wireframe that the subtitles are built on using color info from the program it’s in. So ~10% isn’t too bad when it’s pulled out as something independently decodable. You can ocr the text, but if you are wanting to archive the original bitmap based subs, not much that can be done. There’s no easy way to weave it back in as subpicture either, not a reversible process.

Much thanks for your detailed teaching.

It turns out, that I was in error with the ~10 %. A 6 min. chunk of the
video with subtitles in mkv container consumes 100.6 MB, without
subtitles in mp4 it's 98.1 MB. It was late in the night when I
erroneously read 90.1 MB. So the footprint is only 2.5 % which is ok for
me. Please sorry for the noise and your efforts.

But with the OCR idea I have a problem. Have you seen the pics I
attached 18.02.19, 23:15 MEZ ?

I'm still wondering, why ffmpeg doesn't recognize the language codes of
the subtitle streams. They must be there, as one can see from the
attached dvd::rip screenshot. Is it possible to add them manually?

-Ulf

_______________________________________________
ffmpeg-user mailing list
[hidden email]
http://ffmpeg.org/mailman/listinfo/ffmpeg-user

To unsubscribe, visit link above, or email
[hidden email] with subject "unsubscribe".

dvdrip language codes.png (221K) Download Attachment
Reply | Threaded
Open this post in threaded view
|

Re: How to copy all of 5 audio streams to mp4 file

Ulf Zibis
In reply to this post by Moritz Barsnick

Am 18.02.19 um 22:02 schrieb Moritz Barsnick:
> Exactly as Ted said (and I had forgotten). There are basically two
> classes of subtitle streams: text and bitmap. ffmpeg cannot
> convert/encode the latter to the former. The format mp4 does not
> support any type of bitmap subtitles (to my knowledge),

Hey Moritz,

with "-c:s copy" I was able, to add the bitmap subtitles to a mp4
container too.

-Ulf

_______________________________________________
ffmpeg-user mailing list
[hidden email]
http://ffmpeg.org/mailman/listinfo/ffmpeg-user

To unsubscribe, visit link above, or email
[hidden email] with subject "unsubscribe".
12