How to convert PsF WMV/ASF file to MP4

classic Classic list List threaded Threaded
2 messages Options
Reply | Threaded
Open this post in threaded view
|

How to convert PsF WMV/ASF file to MP4

Virtual Cloud
Hi,

Kindly I need your support to convert WMV/ASF file to MP4. ffmpeg reported
error: Progressive Segmented Frame mode: not supported (yet).

Does ffmpeg support PsF? Is there any parameter/tool we can use to convert
PsF WMV/asf file to mp4 in Linux?

I would appreciate any ideas.

Progressive Segmented Frame (PsF):
https://en.wikipedia.org/wiki/Progressive_segmented_frame

ffmpeg parameters and output:

```
./ffmpeg -i test1.asf -c:v libx264 -strict -2 test1.mp4
ffmpeg version 4.1-tessus  https://evermeet.cx/ffmpeg/  Copyright (c)
2000-2018 the FFmpeg developers
  built with Apple LLVM version 10.0.0 (clang-1000.11.45.5)
  configuration: --cc=/usr/bin/clang --prefix=/opt/ffmpeg
--extra-version=tessus --enable-avisynth --enable-fontconfig --enable-gpl
--enable-libaom --enable-libass --enable-libbluray --enable-libfreetype
--enable-libgsm --enable-libmodplug --enable-libmp3lame --enable-libmysofa
--enable-libopencore-amrnb --enable-libopencore-amrwb --enable-libopus
--enable-librubberband --enable-libshine --enable-libsnappy
--enable-libsoxr --enable-libspeex --enable-libtheora --enable-libtwolame
--enable-libvidstab --enable-libvo-amrwbenc --enable-libvorbis
--enable-libvpx --enable-libwavpack --enable-libx264 --enable-libx265
--enable-libxavs --enable-libxvid --enable-libzimg --enable-libzmq
--enable-libzvbi --enable-version3 --pkg-config-flags=--static
--disable-ffplay
  libavutil      56. 22.100 / 56. 22.100
  libavcodec     58. 35.100 / 58. 35.100
  libavformat    58. 20.100 / 58. 20.100
  libavdevice    58.  5.100 / 58.  5.100
  libavfilter     7. 40.101 /  7. 40.101
  libswscale      5.  3.100 /  5.  3.100
  libswresample   3.  3.100 /  3.  3.100
  libpostproc    55.  3.100 / 55.  3.100
[vc1 @ 0x7f8fc100e600] Progressive Segmented Frame mode: not supported (yet)
[asf @ 0x7f8fc1005a00] Failed to open codec in avformat_find_stream_info
[vc1 @ 0x7f8fc100e600] Progressive Segmented Frame mode: not supported (yet)
Guessed Channel Layout for Input Stream #0.1 : stereo
Input #0, asf, from 'test1.asf':
  Duration: 00:12:20.50, start: 0.000000, bitrate: 1073 kb/s
    Stream #0:0: Video: vc1 (WVC1 / 0x31435657), none, 1280x720, 1k tbr, 1k
tbn, 1k tbc
    Stream #0:1: Audio: wmav2 (a[1][0][0] / 0x0161), 48000 Hz, stereo,
fltp, 64 kb/s
[vc1 @ 0x7f8fc081f600] Progressive Segmented Frame mode: not supported (yet)
Stream mapping:
  Stream #0:0 -> #0:0 (vc1 (native) -> h264 (libx264))
  Stream #0:1 -> #0:1 (wmav2 (native) -> aac (native))
Error while opening decoder for input stream #0:0 : Operation not permitted
```


Thanks,
Jackie
_______________________________________________
ffmpeg-user mailing list
[hidden email]
http://ffmpeg.org/mailman/listinfo/ffmpeg-user

To unsubscribe, visit link above, or email
[hidden email] with subject "unsubscribe".
Reply | Threaded
Open this post in threaded view
|

Re: How to convert PsF WMV/ASF file to MP4

Carl Eugen Hoyos-2
2019-01-21 12:04 GMT+01:00, Virtual Cloud <[hidden email]>:

> Kindly I need your support to convert WMV/ASF file to MP4. ffmpeg reported
> error: Progressive Segmented Frame mode: not supported (yet).

This is ticket #2685: https://trac.ffmpeg.org/ticket/2685
Feel free to provide your sample.

> Does ffmpeg support PsF? Is there any parameter/tool we can use to convert
> PsF WMV/asf file to mp4 in Linux?

MPlayer / MEncoder.

> ./ffmpeg -i test1.asf -c:v libx264 -strict -2 test1.mp4
> ffmpeg version 4.1-tessus  https://evermeet.cx/ffmpeg/  Copyright (c)

For future questions: Please remember that releases are not
supported here, only current FFmpeg git head is.

Carl Eugen
_______________________________________________
ffmpeg-user mailing list
[hidden email]
http://ffmpeg.org/mailman/listinfo/ffmpeg-user

To unsubscribe, visit link above, or email
[hidden email] with subject "unsubscribe".