DNxHD 350x

classic Classic list List threaded Threaded
2 messages Options
Reply | Threaded
Open this post in threaded view
|

DNxHD 350x

g.cemeli
Hello,
I try to generate DNxHD 350x mxf file.

- With the command line :

ffmpeg -i input.mxf -filter_complex "yadif,scale=1920:1080,fps=24000/1001,format=yuv422p10" -c:v dnxhd -b:v 350M -y c:\junk\output.mxf

I got the output :

ffmpeg version N-94664-g0821bc4eee Copyright (c) 2000-2019 the FFmpeg developers
  built with gcc 9.1.1 (GCC) 20190807
  configuration: --enable-gpl --enable-version3 --enable-sdl2 --enable-fontconfig --enable-gnutls --enable-iconv --enable-libass --enable-libdav1d --enable-libbluray --enable-libfreetype --enable-libmp3lame --enable-libopencore-amrnb --enable-libopencore-amrwb --enable-libopenjpeg --enable-libopus --enable-libshine --enable-libsnappy --enable-libsoxr --enable-libtheora --enable-libtwolame --enable-libvpx --enable-libwavpack --enable-libwebp --enable-libx264 --enable-libx265 --enable-libxml2 --enable-libzimg --enable-lzma --enable-zlib --enable-gmp --enable-libvidstab --enable-libvorbis --enable-libvo-amrwbenc --enable-libmysofa --enable-libspeex --enable-libxvid --enable-libaom --enable-libmfx --enable-amf --enable-ffnvcodec --enable-cuvid --enable-d3d11va --enable-nvenc --enable-nvdec --enable-dxva2 --enable-avisynth --enable-libopenmpt
  libavutil      56. 33.100 / 56. 33.100
  libavcodec     58. 55.101 / 58. 55.101
  libavformat    58. 31.104 / 58. 31.104
  libavdevice    58.  9.100 / 58.  9.100
  libavfilter     7. 58.101 /  7. 58.101
  libswscale      5.  6.100 /  5.  6.100
  libswresample   3.  6.100 /  3.  6.100
  libpostproc    55.  6.100 / 55.  6.100
Guessed Channel Layout for Input Stream #0.1 : mono
Guessed Channel Layout for Input Stream #0.2 : mono
Input #0, mxf, from 'input.mxf':
  Metadata:
    operational_pattern_ul: 060e2b34.04010101.0d010201.01010900
    uid             : 274a0212-6505-4800-80ad-d20002240a88
    generation_uid  : 274a0212-6505-4800-812d-d20002240a88
    company_name    : CANON
    product_name    : XF105
    product_version : 1.00
    product_uid     : 060e2b34-0401-010d-0e15-005658460100
    modification_date: 2013-08-08T15:18:17.000000Z
    material_package_umid: 0x060A2B340101010501010D43130000000A274A03126505800000850002240A88
    timecode        : 00:01:55:05
  Duration: 00:00:20.64, start: 0.000000, bitrate: 51822 kb/s
    Stream #0:0: Video: mpeg2video (4:2:2), yuv422p(tv, bt709, top first), 1920x1080 [SAR 1:1 DAR 16:9], 50000 kb/s, 25 fps, 25 tbr, 25 tbn, 50 tbc
    Metadata:
      file_package_umid: 0x060A2B340101010501010D43130000000A274A02126505800000850002240A88
    Stream #0:1: Audio: pcm_s16le, 48000 Hz, mono, s16, 768 kb/s
    Metadata:
      file_package_umid: 0x060A2B340101010501010D43130000000A274A02126505800000850002240A88
    Stream #0:2: Audio: pcm_s16le, 48000 Hz, mono, s16, 768 kb/s
    Metadata:
      file_package_umid: 0x060A2B340101010501010D43130000000A274A02126505800000850002240A88
Stream mapping:
  Stream #0:0 (mpeg2video) -> yadif (graph 0)
  format (graph 0) -> Stream #0:0 (dnxhd)
  Stream #0:1 -> #0:1 (pcm_s16le (native) -> pcm_s16le (native))
Press [q] to stop, [?] for help
[dnxhd @ 000001e1f0305e00] video parameters incompatible with DNxHD. Valid DNxHD profiles:
[dnxhd @ 000001e1f0305e00] Frame size: 1920x1080p; bitrate: 175Mbps; pixel format: yuv422p10
[dnxhd @ 000001e1f0305e00] Frame size: 1920x1080p; bitrate: 185Mbps; pixel format: yuv422p10
[dnxhd @ 000001e1f0305e00] Frame size: 1920x1080p; bitrate: 365Mbps; pixel format: yuv422p10
[dnxhd @ 000001e1f0305e00] Frame size: 1920x1080p; bitrate: 440Mbps; pixel format: yuv422p10
[dnxhd @ 000001e1f0305e00] Frame size: 1920x1080p; bitrate: 115Mbps; pixel format: yuv422p
[dnxhd @ 000001e1f0305e00] Frame size: 1920x1080p; bitrate: 120Mbps; pixel format: yuv422p
[dnxhd @ 000001e1f0305e00] Frame size: 1920x1080p; bitrate: 145Mbps; pixel format: yuv422p
[dnxhd @ 000001e1f0305e00] Frame size: 1920x1080p; bitrate: 240Mbps; pixel format: yuv422p
[dnxhd @ 000001e1f0305e00] Frame size: 1920x1080p; bitrate: 290Mbps; pixel format: yuv422p
[dnxhd @ 000001e1f0305e00] Frame size: 1920x1080p; bitrate: 175Mbps; pixel format: yuv422p
[dnxhd @ 000001e1f0305e00] Frame size: 1920x1080p; bitrate: 185Mbps; pixel format: yuv422p
[dnxhd @ 000001e1f0305e00] Frame size: 1920x1080p; bitrate: 220Mbps; pixel format: yuv422p
[dnxhd @ 000001e1f0305e00] Frame size: 1920x1080p; bitrate: 365Mbps; pixel format: yuv422p
[dnxhd @ 000001e1f0305e00] Frame size: 1920x1080p; bitrate: 440Mbps; pixel format: yuv422p
[dnxhd @ 000001e1f0305e00] Frame size: 1920x1080i; bitrate: 185Mbps; pixel format: yuv422p10
[dnxhd @ 000001e1f0305e00] Frame size: 1920x1080i; bitrate: 220Mbps; pixel format: yuv422p10
[dnxhd @ 000001e1f0305e00] Frame size: 1920x1080i; bitrate: 120Mbps; pixel format: yuv422p
[dnxhd @ 000001e1f0305e00] Frame size: 1920x1080i; bitrate: 145Mbps; pixel format: yuv422p
[dnxhd @ 000001e1f0305e00] Frame size: 1920x1080i; bitrate: 185Mbps; pixel format: yuv422p
[dnxhd @ 000001e1f0305e00] Frame size: 1920x1080i; bitrate: 220Mbps; pixel format: yuv422p
[dnxhd @ 000001e1f0305e00] Frame size: 1440x1080i; bitrate: 120Mbps; pixel format: yuv422p
[dnxhd @ 000001e1f0305e00] Frame size: 1440x1080i; bitrate: 145Mbps; pixel format: yuv422p
[dnxhd @ 000001e1f0305e00] Frame size: 1280x720p; bitrate: 90Mbps; pixel format: yuv422p10
[dnxhd @ 000001e1f0305e00] Frame size: 1280x720p; bitrate: 180Mbps; pixel format: yuv422p10
[dnxhd @ 000001e1f0305e00] Frame size: 1280x720p; bitrate: 220Mbps; pixel format: yuv422p10
[dnxhd @ 000001e1f0305e00] Frame size: 1280x720p; bitrate: 90Mbps; pixel format: yuv422p
[dnxhd @ 000001e1f0305e00] Frame size: 1280x720p; bitrate: 110Mbps; pixel format: yuv422p
[dnxhd @ 000001e1f0305e00] Frame size: 1280x720p; bitrate: 180Mbps; pixel format: yuv422p
[dnxhd @ 000001e1f0305e00] Frame size: 1280x720p; bitrate: 220Mbps; pixel format: yuv422p
[dnxhd @ 000001e1f0305e00] Frame size: 1280x720p; bitrate: 60Mbps; pixel format: yuv422p
[dnxhd @ 000001e1f0305e00] Frame size: 1280x720p; bitrate: 75Mbps; pixel format: yuv422p
[dnxhd @ 000001e1f0305e00] Frame size: 1280x720p; bitrate: 120Mbps; pixel format: yuv422p
[dnxhd @ 000001e1f0305e00] Frame size: 1280x720p; bitrate: 145Mbps; pixel format: yuv422p
[dnxhd @ 000001e1f0305e00] Frame size: 1920x1080p; bitrate: 36Mbps; pixel format: yuv422p
[dnxhd @ 000001e1f0305e00] Frame size: 1920x1080p; bitrate: 45Mbps; pixel format: yuv422p
[dnxhd @ 000001e1f0305e00] Frame size: 1920x1080p; bitrate: 75Mbps; pixel format: yuv422p
[dnxhd @ 000001e1f0305e00] Frame size: 1920x1080p; bitrate: 90Mbps; pixel format: yuv422p
[dnxhd @ 000001e1f0305e00] Frame size: 1920x1080p; bitrate: 350Mbps; pixel format: yuv444p10, gbrp10
[dnxhd @ 000001e1f0305e00] Frame size: 1920x1080p; bitrate: 390Mbps; pixel format: yuv444p10, gbrp10
[dnxhd @ 000001e1f0305e00] Frame size: 1920x1080p; bitrate: 440Mbps; pixel format: yuv444p10, gbrp10
[dnxhd @ 000001e1f0305e00] Frame size: 1920x1080p; bitrate: 730Mbps; pixel format: yuv444p10, gbrp10
[dnxhd @ 000001e1f0305e00] Frame size: 1920x1080p; bitrate: 880Mbps; pixel format: yuv444p10, gbrp10
[dnxhd @ 000001e1f0305e00] Frame size: 960x720p; bitrate: 42Mbps; pixel format: yuv422p
[dnxhd @ 000001e1f0305e00] Frame size: 960x720p; bitrate: 60Mbps; pixel format: yuv422p
[dnxhd @ 000001e1f0305e00] Frame size: 960x720p; bitrate: 75Mbps; pixel format: yuv422p
[dnxhd @ 000001e1f0305e00] Frame size: 960x720p; bitrate: 115Mbps; pixel format: yuv422p
[dnxhd @ 000001e1f0305e00] Frame size: 1440x1080p; bitrate: 63Mbps; pixel format: yuv422p
[dnxhd @ 000001e1f0305e00] Frame size: 1440x1080p; bitrate: 84Mbps; pixel format: yuv422p
[dnxhd @ 000001e1f0305e00] Frame size: 1440x1080p; bitrate: 100Mbps; pixel format: yuv422p
[dnxhd @ 000001e1f0305e00] Frame size: 1440x1080p; bitrate: 110Mbps; pixel format: yuv422p
[dnxhd @ 000001e1f0305e00] Frame size: 1440x1080i; bitrate: 80Mbps; pixel format: yuv422p
[dnxhd @ 000001e1f0305e00] Frame size: 1440x1080i; bitrate: 90Mbps; pixel format: yuv422p
[dnxhd @ 000001e1f0305e00] Frame size: 1440x1080i; bitrate: 100Mbps; pixel format: yuv422p
[dnxhd @ 000001e1f0305e00] Frame size: 1440x1080i; bitrate: 110Mbps; pixel format: yuv422p
[dnxhd @ 000001e1f037dd00] ff_frame_thread_encoder_init failed
Error initializing output stream 0:0 -- Error while opening encoder for output stream #0:0 - maybe incorrect parameters such as bit_rate, rate, width or height
Conversion failed!


- Since DNxHD 350x is a 4:4:4 10bit format, this error is normal.

- I then try :
ffmpeg -i input.mxf -filter_complex "yadif,scale=1920:1080,fps=24000/1001,format=yuv444p10" -c:v dnxhd -b:v 350M -y c:\junk\output.mxf

wich give the output :

C:\Users\woody\Desktop\ffmpeg-20190826-0821bc4-win64-static\bin>ffmpeg -i input.mxf -filter_complex "yadif,scale=1920:1080,fps=24000/1001,format=yuv444p10" -c:v dnxhd -b:v 350M -y c:\junk\output.mxf
ffmpeg version N-94664-g0821bc4eee Copyright (c) 2000-2019 the FFmpeg developers
  built with gcc 9.1.1 (GCC) 20190807
  configuration: --enable-gpl --enable-version3 --enable-sdl2 --enable-fontconfig --enable-gnutls --enable-iconv --enable-libass --enable-libdav1d --enable-libbluray --enable-libfreetype --enable-libmp3lame --enable-libopencore-amrnb --enable-libopencore-amrwb --enable-libopenjpeg --enable-libopus --enable-libshine --enable-libsnappy --enable-libsoxr --enable-libtheora --enable-libtwolame --enable-libvpx --enable-libwavpack --enable-libwebp --enable-libx264 --enable-libx265 --enable-libxml2 --enable-libzimg --enable-lzma --enable-zlib --enable-gmp --enable-libvidstab --enable-libvorbis --enable-libvo-amrwbenc --enable-libmysofa --enable-libspeex --enable-libxvid --enable-libaom --enable-libmfx --enable-amf --enable-ffnvcodec --enable-cuvid --enable-d3d11va --enable-nvenc --enable-nvdec --enable-dxva2 --enable-avisynth --enable-libopenmpt
  libavutil      56. 33.100 / 56. 33.100
  libavcodec     58. 55.101 / 58. 55.101
  libavformat    58. 31.104 / 58. 31.104
  libavdevice    58.  9.100 / 58.  9.100
  libavfilter     7. 58.101 /  7. 58.101
  libswscale      5.  6.100 /  5.  6.100
  libswresample   3.  6.100 /  3.  6.100
  libpostproc    55.  6.100 / 55.  6.100
Guessed Channel Layout for Input Stream #0.1 : mono
Guessed Channel Layout for Input Stream #0.2 : mono
Input #0, mxf, from 'input.mxf':
  Metadata:
    operational_pattern_ul: 060e2b34.04010101.0d010201.01010900
    uid             : 274a0212-6505-4800-80ad-d20002240a88
    generation_uid  : 274a0212-6505-4800-812d-d20002240a88
    company_name    : CANON
    product_name    : XF105
    product_version : 1.00
    product_uid     : 060e2b34-0401-010d-0e15-005658460100
    modification_date: 2013-08-08T15:18:17.000000Z
    material_package_umid: 0x060A2B340101010501010D43130000000A274A03126505800000850002240A88
    timecode        : 00:01:55:05
  Duration: 00:00:20.64, start: 0.000000, bitrate: 51822 kb/s
    Stream #0:0: Video: mpeg2video (4:2:2), yuv422p(tv, bt709, top first), 1920x1080 [SAR 1:1 DAR 16:9], 50000 kb/s, 25 fps, 25 tbr, 25 tbn, 50 tbc
    Metadata:
      file_package_umid: 0x060A2B340101010501010D43130000000A274A02126505800000850002240A88
    Stream #0:1: Audio: pcm_s16le, 48000 Hz, mono, s16, 768 kb/s
    Metadata:
      file_package_umid: 0x060A2B340101010501010D43130000000A274A02126505800000850002240A88
    Stream #0:2: Audio: pcm_s16le, 48000 Hz, mono, s16, 768 kb/s
    Metadata:
      file_package_umid: 0x060A2B340101010501010D43130000000A274A02126505800000850002240A88
Stream mapping:
  Stream #0:0 (mpeg2video) -> yadif (graph 0)
  format (graph 0) -> Stream #0:0 (dnxhd)
  Stream #0:1 -> #0:1 (pcm_s16le (native) -> pcm_s16le (native))
Press [q] to stop, [?] for help
[dnxhd @ 000002a0f7b4ab80] pixel format is incompatible with DNxHD profile
[dnxhd @ 000002a0f7b4dd00] ff_frame_thread_encoder_init failed
Error initializing output stream 0:0 -- Error while opening encoder for output stream #0:0 - maybe incorrect parameters such as bit_rate, rate, width or height
Conversion failed!

- Although it is in the Valid DNxHD profiles list,  1920x1080p - 350Mbps - yuv444p10 is rejected with "pixel format is incompatible with DNxHD profile" error.

Can somebody helps ?


Gregor.
_______________________________________________
ffmpeg-user mailing list
[hidden email]
https://ffmpeg.org/mailman/listinfo/ffmpeg-user

To unsubscribe, visit link above, or email
[hidden email] with subject "unsubscribe".
Reply | Threaded
Open this post in threaded view
|

Re: DNxHD 350x

Moritz Barsnick
On Mon, Sep 02, 2019 at 10:42:34 +0000, g.cemeli wrote:
> I try to generate DNxHD 350x mxf file.
[...]
> - Although it is in the Valid DNxHD profiles list,  1920x1080p - 350Mbps - yuv444p10 is rejected with "pixel format is incompatible with DNxHD profile" error.

I don't know about that list, but from checking the source, this pixel
format is only compatible with the profile dnxhr_444. You need to add

  -profile:v dnxhr_444

to your output arguments for this to work. All other pixel formats
(except gbrp10) are compatible with the default profile.

Cheers,
Moritz
_______________________________________________
ffmpeg-user mailing list
[hidden email]
https://ffmpeg.org/mailman/listinfo/ffmpeg-user

To unsubscribe, visit link above, or email
[hidden email] with subject "unsubscribe".