Copy Audio

classic Classic list List threaded Threaded
32 messages Options
12
Reply | Threaded
Open this post in threaded view
|

Copy Audio

Chris-2
Today I upgraded to ffmpeg v 4.1. The following code used to work but no longer does. What is the fix?

-c:a copy

-acodec copy

My script works fine if this code is eliminated except that I cannot copy the audio as previously.

Thank you.
_______________________________________________
ffmpeg-user mailing list
[hidden email]
http://ffmpeg.org/mailman/listinfo/ffmpeg-user

To unsubscribe, visit link above, or email
[hidden email] with subject "unsubscribe".
Reply | Threaded
Open this post in threaded view
|

Re: Copy Audio

Paul B Mahol
On 12/17/18, Chris <[hidden email]> wrote:
> Today I upgraded to ffmpeg v 4.1. The following code used to work but no
> longer does. What is the fix?
>
> -c:a copy
>
> -acodec copy
>
> My script works fine if this code is eliminated except that I cannot copy
> the audio as previously.

Full uncut ffmpeg console output missing.
_______________________________________________
ffmpeg-user mailing list
[hidden email]
http://ffmpeg.org/mailman/listinfo/ffmpeg-user

To unsubscribe, visit link above, or email
[hidden email] with subject "unsubscribe".
Reply | Threaded
Open this post in threaded view
|

Re: Copy Audio

Kieran O Leary
In reply to this post by Chris-2
On Mon, Dec 17, 2018 at 9:16 PM Chris <[hidden email]>
wrote:

> Today I upgraded to ffmpeg v 4.1. The following code used to work but no
> longer does. What is the fix?
>

Please post the full command line you used along with the full uncut
terminal output. The answer will most likely be in there.

Best,

Kieran.
_______________________________________________
ffmpeg-user mailing list
[hidden email]
http://ffmpeg.org/mailman/listinfo/ffmpeg-user

To unsubscribe, visit link above, or email
[hidden email] with subject "unsubscribe".
Reply | Threaded
Open this post in threaded view
|

Re: Copy Audio

Carl Eugen Hoyos-2
In reply to this post by Chris-2
2018-12-17 22:16 GMT+01:00, Chris <[hidden email]>:
> Today I upgraded to ffmpeg v 4.1.

Please don't (unless you are a distributor, if you are not, only
current FFmpeg git head is recommended and supported).

> The following code used to work but no
> longer does. What is the fix?

Actual command line and complete, uncut console output missing.

Carl Eugen
_______________________________________________
ffmpeg-user mailing list
[hidden email]
http://ffmpeg.org/mailman/listinfo/ffmpeg-user

To unsubscribe, visit link above, or email
[hidden email] with subject "unsubscribe".
Reply | Threaded
Open this post in threaded view
|

Re: Copy Audio

Chris-2
In reply to this post by Kieran O Leary
Command:

ffmpeg -y -i  "D:\Videos\Trains\December_6_2018_San_Jose\C0061.MP4"  -crf 1  -c:v libx264  -pix_fmt yuv420p  -s 1280x720  -r 59.94  -vf eq=gamma=0.83,lutyuv=y='clip(val,26,220)'  -c:a copy  processed.mp4

Program output:

ffmpeg version 4.1 Copyright (c) 2000-2018 the FFmpeg developers
  built with gcc 8.2.1 (GCC) 20181017
  configuration: --enable-gpl --enable-version3 --enable-sdl2 --enable-fontconfig --enable-gnutls --enable-iconv --enable-libass --enable-libbluray --enable-libfreetype --enable-libmp3lame --enable-libopencore-amrnb --enable-libopencore-amrwb --enable-libopenjpeg --enable-libopus --enable-libshine --enable-libsnappy --enable-libsoxr --enable-libtheora --enable-libtwolame --enable-libvpx --enable-libwavpack --enable-libwebp --enable-libx264 --enable-libx265 --enable-libxml2 --enable-libzimg --enable-lzma --enable-zlib --enable-gmp --enable-libvidstab --enable-libvorbis --enable-libvo-amrwbenc --enable-libmysofa --enable-libspeex --enable-libxvid --enable-libaom --enable-libmfx --enable-amf --enable-ffnvcodec --enable-cuvid --enable-d3d11va --enable-nvenc --enable-nvdec --enable-dxva2 --enable-avisynth
  libavutil      56. 22.100 / 56. 22.100
  libavcodec     58. 35.100 / 58. 35.100
  libavformat    58. 20.100 / 58. 20.100
  libavdevice    58.  5.100 / 58.  5.100
  libavfilter     7. 40.101 /  7. 40.101
  libswscale      5.  3.100 /  5.  3.100
  libswresample   3.  3.100 /  3.  3.100
  libpostproc    55.  3.100 / 55.  3.100
Guessed Channel Layout for Input Stream #0.1 : stereo
Input #0, mov,mp4,m4a,3gp,3g2,mj2, from 'D:\Videos\Trains\December_6_2018_San_Jose\C0061.MP4':
  Metadata:
    major_brand     : XAVC
    minor_version   : 16785407
    compatible_brands: XAVCmp42iso2
    creation_time   : 2018-12-06T22:39:45.000000Z
  Duration: 00:00:59.06, start: 0.000000, bitrate: 51930 kb/s
    Stream #0:0(und): Video: h264 (High) (avc1 / 0x31637661), yuv420p(tv, bt709/bt709/iec61966-2-4), 1920x1080 [SAR 1:1 DAR 16:9], 49901 kb/s, 59.94 fps, 59.94 tbr, 60k tbn, 119.88 tbc (default)
    Metadata:
      creation_time   : 2018-12-06T22:39:45.000000Z
      handler_name    : Video Media Handler
      encoder         : AVC Coding
    Stream #0:1(und): Audio: pcm_s16be (twos / 0x736F7774), 48000 Hz, stereo, s16, 1536 kb/s (default)
    Metadata:
      creation_time   : 2018-12-06T22:39:45.000000Z
      handler_name    : Sound Media Handler
    Stream #0:2(und): Data: none (rtmd / 0x646D7472), 491 kb/s (default)
    Metadata:
      creation_time   : 2018-12-06T22:39:45.000000Z
      handler_name    : Timed Metadata Media Handler
      timecode        : 00:41:58:28
Stream mapping:
  Stream #0:0 -> #0:0 (h264 (native) -> h264 (libx264))
  Stream #0:1 -> #0:1 (copy)
Press [q] to stop, [?] for help
[libx264 @ 000001e4d07d3b00] using SAR=1/1
[libx264 @ 000001e4d07d3b00] using cpu capabilities: MMX2 SSE2Fast SSSE3 SSE4.2 AVX
[libx264 @ 000001e4d07d3b00] profile High, level 3.2, 4:2:0, 8-bit
[libx264 @ 000001e4d07d3b00] 264 - core 157 r2935 545de2f - H.264/MPEG-4 AVC codec - Copyleft 2003-2018 - http://www.videolan.org/x264.html - options: cabac=1 ref=3 deblock=1:0:0 analyse=0x3:0x113 me=hex subme=7 psy=1 psy_rd=1.00:0.00 mixed_ref=1 me_range=16 chroma_me=1 trellis=1 8x8dct=1 cqm=0 deadzone=21,11 fast_pskip=1 chroma_qp_offset=-2 threads=12 lookahead_threads=2 sliced_threads=0 nr=0 decimate=1 interlaced=0 bluray_compat=0 constrained_intra=0 bframes=3 b_pyramid=2 b_adapt=1 b_bias=0 direct=1 weightb=1 open_gop=0 weightp=2 keyint=250 keyint_min=25 scenecut=40 intra_refresh=0 rc_lookahead=40 rc=crf mbtree=1 crf=1.0 qcomp=0.60 qpmin=0 qpmax=69 qpstep=4 ip_ratio=1.40 aq=1:1.00
[mp4 @ 000001e4d10100c0] Could not find tag for codec pcm_s16be in stream #1, codec not currently supported in container
Could not write header for output file #0 (incorrect codec parameters ?): Invalid argument
Error initializing output stream 0:0 --
Conversion failed!


-----Original Message-----
From: Kieran O Leary <[hidden email]>
To: FFmpeg user questions <[hidden email]>
Sent: Mon, Dec 17, 2018 1:30 pm
Subject: Re: [FFmpeg-user] Copy Audio


On Mon, Dec 17, 2018 at 9:16 PM Chris <[hidden email]>

wrote:

> Today I upgraded to ffmpeg v 4.1. The following code used to work but no
> longer does. What is the fix?

>

Please post the full command line you used along with the full uncut
terminal output. The answer will most likely be in there.

Best,

Kieran.
_______________________________________________
ffmpeg-user mailing list
[hidden email]
http://ffmpeg.org/mailman/listinfo/ffmpeg-user

To unsubscribe, visit link above, or email
[hidden email] with subject "unsubscribe".
_______________________________________________
ffmpeg-user mailing list
[hidden email]
http://ffmpeg.org/mailman/listinfo/ffmpeg-user

To unsubscribe, visit link above, or email
[hidden email] with subject "unsubscribe".
Reply | Threaded
Open this post in threaded view
|

Re: Copy Audio

Kieran O Leary
On Mon, 17 Dec 2018, 22:36 Chris <[hidden email] wrote:

> Command:
>
> ffmpeg -y -i  "D:\Videos\Trains\December_6_2018_San_Jose\C0061.MP4"  -crf
> 1  -c:v libx264  -pix_fmt yuv420p  -s 1280x720  -r 59.94  -vf
> eq=gamma=0.83,lutyuv=y='clip(val,26,220)'  -c:a copy  processed.mp4
>
> Program output:
>
> ffmpeg version 4.1 Copyright (c) 2000-2018 the FFmpeg developers
>   built with gcc 8.2.1 (GCC) 20181017
>   configuration: --enable-gpl --enable-version3 --enable-sdl2
> --enable-fontconfig --enable-gnutls --enable-iconv --enable-libass
> --enable-libbluray --enable-libfreetype --enable-libmp3lame
> --enable-libopencore-amrnb --enable-libopencore-amrwb --enable-libopenjpeg
> --enable-libopus --enable-libshine --enable-libsnappy --enable-libsoxr
> --enable-libtheora --enable-libtwolame --enable-libvpx --enable-libwavpack
> --enable-libwebp --enable-libx264 --enable-libx265 --enable-libxml2
> --enable-libzimg --enable-lzma --enable-zlib --enable-gmp
> --enable-libvidstab --enable-libvorbis --enable-libvo-amrwbenc
> --enable-libmysofa --enable-libspeex --enable-libxvid --enable-libaom
> --enable-libmfx --enable-amf --enable-ffnvcodec --enable-cuvid
> --enable-d3d11va --enable-nvenc --enable-nvdec --enable-dxva2
> --enable-avisynth
>   libavutil      56. 22.100 / 56. 22.100
>   libavcodec     58. 35.100 / 58. 35.100
>   libavformat    58. 20.100 / 58. 20.100
>   libavdevice    58.  5.100 / 58.  5.100
>   libavfilter     7. 40.101 /  7. 40.101
>   libswscale      5.  3.100 /  5.  3.100
>   libswresample   3.  3.100 /  3.  3.100
>   libpostproc    55.  3.100 / 55.  3.100
> Guessed Channel Layout for Input Stream #0.1 : stereo
> Input #0, mov,mp4,m4a,3gp,3g2,mj2, from
> 'D:\Videos\Trains\December_6_2018_San_Jose\C0061.MP4':
>   Metadata:
>     major_brand     : XAVC
>     minor_version   : 16785407
>     compatible_brands: XAVCmp42iso2
>     creation_time   : 2018-12-06T22:39:45.000000Z
>   Duration: 00:00:59.06, start: 0.000000, bitrate: 51930 kb/s
>     Stream #0:0(und): Video: h264 (High) (avc1 / 0x31637661), yuv420p(tv,
> bt709/bt709/iec61966-2-4), 1920x1080 [SAR 1:1 DAR 16:9], 49901 kb/s, 59.94
> fps, 59.94 tbr, 60k tbn, 119.88 tbc (default)
>     Metadata:
>       creation_time   : 2018-12-06T22:39:45.000000Z
>       handler_name    : Video Media Handler
>       encoder         : AVC Coding
>     Stream #0:1(und): Audio: pcm_s16be (twos / 0x736F7774), 48000 Hz,
> stereo, s16, 1536 kb/s (default)
>     Metadata:
>       creation_time   : 2018-12-06T22:39:45.000000Z
>       handler_name    : Sound Media Handler
>     Stream #0:2(und): Data: none (rtmd / 0x646D7472), 491 kb/s (default)
>     Metadata:
>       creation_time   : 2018-12-06T22:39:45.000000Z
>       handler_name    : Timed Metadata Media Handler
>       timecode        : 00:41:58:28
> Stream mapping:
>   Stream #0:0 -> #0:0 (h264 (native) -> h264 (libx264))
>   Stream #0:1 -> #0:1 (copy)
> Press [q] to stop, [?] for help
> [libx264 @ 000001e4d07d3b00] using SAR=1/1
> [libx264 @ 000001e4d07d3b00] using cpu capabilities: MMX2 SSE2Fast SSSE3
> SSE4.2 AVX
> [libx264 @ 000001e4d07d3b00] profile High, level 3.2, 4:2:0, 8-bit
> [libx264 @ 000001e4d07d3b00] 264 - core 157 r2935 545de2f - H.264/MPEG-4
> AVC codec - Copyleft 2003-2018 - http://www.videolan.org/x264.html -
> options: cabac=1 ref=3 deblock=1:0:0 analyse=0x3:0x113 me=hex subme=7 psy=1
> psy_rd=1.00:0.00 mixed_ref=1 me_range=16 chroma_me=1 trellis=1 8x8dct=1
> cqm=0 deadzone=21,11 fast_pskip=1 chroma_qp_offset=-2 threads=12
> lookahead_threads=2 sliced_threads=0 nr=0 decimate=1 interlaced=0
> bluray_compat=0 constrained_intra=0 bframes=3 b_pyramid=2 b_adapt=1
> b_bias=0 direct=1 weightb=1 open_gop=0 weightp=2 keyint=250 keyint_min=25
> scenecut=40 intra_refresh=0 rc_lookahead=40 rc=crf mbtree=1 crf=1.0
> qcomp=0.60 qpmin=0 qpmax=69 qpstep=4 ip_ratio=1.40 aq=1:1.00
> [mp4 @ 000001e4d10100c0] Could not find tag for codec pcm_s16be in stream
> #1, codec not currently supported in container
> Could not write header for output file #0 (incorrect codec parameters ?):
> Invalid argument
> Error initializing output stream 0:0 --
> Conversion failed!
>


Try mkv or.mov instead. Ffmpeg is saying that it can't mux your
uncompressed audio into MP4.
I think it has always been like this,maybe I'm wrong. Maybe your input
wasn't uncompressed before?

Best,

Kieran
_______________________________________________
ffmpeg-user mailing list
[hidden email]
http://ffmpeg.org/mailman/listinfo/ffmpeg-user

To unsubscribe, visit link above, or email
[hidden email] with subject "unsubscribe".
Reply | Threaded
Open this post in threaded view
|

Re: Copy Audio

Wayne
In reply to this post by Chris-2
I too have the same problem.  In the previous version, I could trim mp4
files with pcm audio, but not 4.1.   MP4 files with pcm audio are found
in most high end cameras and as such should be supported, even though it
may not be part of the official mp4 spec.

wwaag

On 12/17/2018 2:16 PM, Chris wrote:

> ffmpeg -y -i  "D:\Videos\Trains\December_6_2018_San_Jose\C0061.MP4"  -crf 1  -c:v libx264  -pix_fmt yuv420p  -s 1280x720  -r 59.94  -vf eq=gamma=0.83,lutyuv=y='clip(val,26,220)'  -c:a copy  processed.mp4
>
> Program output:
>
> ffmpeg version 4.1 Copyright (c) 2000-2018 the FFmpeg developers
>    built with gcc 8.2.1 (GCC) 20181017
>    configuration: --enable-gpl --enable-version3 --enable-sdl2 --enable-fontconfig --enable-gnutls --enable-iconv --enable-libass --enable-libbluray --enable-libfreetype --enable-libmp3lame --enable-libopencore-amrnb --enable-libopencore-amrwb --enable-libopenjpeg --enable-libopus --enable-libshine --enable-libsnappy --enable-libsoxr --enable-libtheora --enable-libtwolame --enable-libvpx --enable-libwavpack --enable-libwebp --enable-libx264 --enable-libx265 --enable-libxml2 --enable-libzimg --enable-lzma --enable-zlib --enable-gmp --enable-libvidstab --enable-libvorbis --enable-libvo-amrwbenc --enable-libmysofa --enable-libspeex --enable-libxvid --enable-libaom --enable-libmfx --enable-amf --enable-ffnvcodec --enable-cuvid --enable-d3d11va --enable-nvenc --enable-nvdec --enable-dxva2 --enable-avisynth
>    libavutil      56. 22.100 / 56. 22.100
>    libavcodec     58. 35.100 / 58. 35.100
>    libavformat    58. 20.100 / 58. 20.100
>    libavdevice    58.  5.100 / 58.  5.100
>    libavfilter     7. 40.101 /  7. 40.101
>    libswscale      5.  3.100 /  5.  3.100
>    libswresample   3.  3.100 /  3.  3.100
>    libpostproc    55.  3.100 / 55.  3.100
> Guessed Channel Layout for Input Stream #0.1 : stereo
> Input #0, mov,mp4,m4a,3gp,3g2,mj2, from 'D:\Videos\Trains\December_6_2018_San_Jose\C0061.MP4':
>    Metadata:
>      major_brand     : XAVC
>      minor_version   : 16785407
>      compatible_brands: XAVCmp42iso2
>      creation_time   : 2018-12-06T22:39:45.000000Z
>    Duration: 00:00:59.06, start: 0.000000, bitrate: 51930 kb/s
>      Stream #0:0(und): Video: h264 (High) (avc1 / 0x31637661), yuv420p(tv, bt709/bt709/iec61966-2-4), 1920x1080 [SAR 1:1 DAR 16:9], 49901 kb/s, 59.94 fps, 59.94 tbr, 60k tbn, 119.88 tbc (default)
>      Metadata:
>        creation_time   : 2018-12-06T22:39:45.000000Z
>        handler_name    : Video Media Handler
>        encoder         : AVC Coding
>      Stream #0:1(und): Audio: pcm_s16be (twos / 0x736F7774), 48000 Hz, stereo, s16, 1536 kb/s (default)
>      Metadata:
>        creation_time   : 2018-12-06T22:39:45.000000Z
>        handler_name    : Sound Media Handler
>      Stream #0:2(und): Data: none (rtmd / 0x646D7472), 491 kb/s (default)
>      Metadata:
>        creation_time   : 2018-12-06T22:39:45.000000Z
>        handler_name    : Timed Metadata Media Handler
>        timecode        : 00:41:58:28
> Stream mapping:
>    Stream #0:0 -> #0:0 (h264 (native) -> h264 (libx264))
>    Stream #0:1 -> #0:1 (copy)
> Press [q] to stop, [?] for help
> [libx264 @ 000001e4d07d3b00] using SAR=1/1
> [libx264 @ 000001e4d07d3b00] using cpu capabilities: MMX2 SSE2Fast SSSE3 SSE4.2 AVX
> [libx264 @ 000001e4d07d3b00] profile High, level 3.2, 4:2:0, 8-bit
> [libx264 @ 000001e4d07d3b00] 264 - core 157 r2935 545de2f - H.264/MPEG-4 AVC codec - Copyleft 2003-2018 - http://www.videolan.org/x264.html - options: cabac=1 ref=3 deblock=1:0:0 analyse=0x3:0x113 me=hex subme=7 psy=1 psy_rd=1.00:0.00 mixed_ref=1 me_range=16 chroma_me=1 trellis=1 8x8dct=1 cqm=0 deadzone=21,11 fast_pskip=1 chroma_qp_offset=-2 threads=12 lookahead_threads=2 sliced_threads=0 nr=0 decimate=1 interlaced=0 bluray_compat=0 constrained_intra=0 bframes=3 b_pyramid=2 b_adapt=1 b_bias=0 direct=1 weightb=1 open_gop=0 weightp=2 keyint=250 keyint_min=25 scenecut=40 intra_refresh=0 rc_lookahead=40 rc=crf mbtree=1 crf=1.0 qcomp=0.60 qpmin=0 qpmax=69 qpstep=4 ip_ratio=1.40 aq=1:1.00
> [mp4 @ 000001e4d10100c0] Could not find tag for codec pcm_s16be in stream #1, codec not currently supported in container
> Could not write header for output file #0 (incorrect codec parameters ?): Invalid argument
> Error initializing output stream 0:0 --
> Conversion failed!
>
>
> -----Original Message-----
> From: Kieran O Leary <[hidden email]>
> To: FFmpeg user questions <[hidden email]>
> Sent: Mon, Dec 17, 2018 1:30 pm
> Subject: Re: [FFmpeg-user] Copy Audio
>
>
> On Mon, Dec 17, 2018 at 9:16 PM Chris <[hidden email]>
>
> wrote:
>
>> Today I upgraded to ffmpeg v 4.1. The following code used to work but no
>> longer does. What is the fix?
> Please post the full command line you used along with the full uncut
> terminal output. The answer will most likely be in there.
>
> Best,
>
> Kieran.
> _______________________________________________
> ffmpeg-user mailing list
> [hidden email]
> http://ffmpeg.org/mailman/listinfo/ffmpeg-user
>
> To unsubscribe, visit link above, or email
> [hidden email] with subject "unsubscribe".
> _______________________________________________
> ffmpeg-user mailing list
> [hidden email]
> http://ffmpeg.org/mailman/listinfo/ffmpeg-user
>
> To unsubscribe, visit link above, or email
> [hidden email] with subject "unsubscribe".
_______________________________________________
ffmpeg-user mailing list
[hidden email]
http://ffmpeg.org/mailman/listinfo/ffmpeg-user

To unsubscribe, visit link above, or email
[hidden email] with subject "unsubscribe".
Reply | Threaded
Open this post in threaded view
|

Re: Copy Audio

Carl Eugen Hoyos-2
In reply to this post by Chris-2
2018-12-17 23:16 GMT+01:00, Chris <[hidden email]>:

> ffmpeg -y -i  "D:\Videos\Trains\December_6_2018_San_Jose\C0061.MP4"  -crf 1
> -c:v libx264  -pix_fmt yuv420p  -s 1280x720  -r 59.94  -vf
> eq=gamma=0.83,lutyuv=y='clip(val,26,220)'  -c:a copy  processed.mp4

> [mp4 @ 000001e4d10100c0] Could not find tag for codec pcm_s16be in stream
> #1, codec not currently supported in container

pcm_s16be is not supported in isom (this is not a limitation of FFmpeg iirc),
either use mov or -acodec pcm_s16le or another container (or codec).

For future questions: Remember to test current FFmpeg git head
before posting here.

Carl Eugen
_______________________________________________
ffmpeg-user mailing list
[hidden email]
http://ffmpeg.org/mailman/listinfo/ffmpeg-user

To unsubscribe, visit link above, or email
[hidden email] with subject "unsubscribe".
Reply | Threaded
Open this post in threaded view
|

Re: Copy Audio

Chris-2
In reply to this post by Chris-2
It worked on the same file 24 hours ago using v 4.0.

Reverting.


-----Original Message-----
From: Carl Eugen Hoyos <[hidden email]>
To: FFmpeg user questions <[hidden email]>
Sent: Mon, Dec 17, 2018 2:59 pm
Subject: Re: [FFmpeg-user] Copy Audio


2018-12-17 23:16 GMT+01:00, Chris <[hidden email]>:

> ffmpeg -y -i  "D:\Videos\Trains\December_6_2018_San_Jose\C0061.MP4"  -crf 1
> -c:v libx264  -pix_fmt yuv420p  -s 1280x720  -r 59.94  -vf
> eq=gamma=0.83,lutyuv=y='clip(val,26,220)'  -c:a copy  processed.mp4

> [mp4 @ 000001e4d10100c0] Could not find tag for codec pcm_s16be in stream
> #1, codec not currently supported in container

pcm_s16be is not supported in isom (this is not a limitation of FFmpeg iirc),
either use mov or -acodec pcm_s16le or another container (or codec).

For future questions: Remember to test current FFmpeg git head
before posting here.

Carl Eugen

_______________________________________________
ffmpeg-user mailing list
[hidden email]
http://ffmpeg.org/mailman/listinfo/ffmpeg-user

To unsubscribe, visit link above, or email
[hidden email] with subject "unsubscribe".
_______________________________________________
ffmpeg-user mailing list
[hidden email]
http://ffmpeg.org/mailman/listinfo/ffmpeg-user

To unsubscribe, visit link above, or email
[hidden email] with subject "unsubscribe".
Reply | Threaded
Open this post in threaded view
|

Re: Copy Audio

Kieran O Leary
On Tue, 18 Dec 2018, 03:54 Chris <[hidden email] wrote:

> It worked on the same file 24 hours ago using v 4.0.
>
> Reverting.
>

Can you post the complete terminal output and command line of what you see
when you run the process with 4.0?
_______________________________________________
ffmpeg-user mailing list
[hidden email]
http://ffmpeg.org/mailman/listinfo/ffmpeg-user

To unsubscribe, visit link above, or email
[hidden email] with subject "unsubscribe".
Reply | Threaded
Open this post in threaded view
|

Re: Copy Audio

Paul B Mahol
On 12/18/18, Kieran O Leary <[hidden email]> wrote:
> On Tue, 18 Dec 2018, 03:54 Chris <[hidden email] wrote:
>
>> It worked on the same file 24 hours ago using v 4.0.
>>
>> Reverting.
>>
>
> Can you post the complete terminal output and command line of what you see
> when you run the process with 4.0?

It wrote invalid files, and looks like OP still want invalid files.
_______________________________________________
ffmpeg-user mailing list
[hidden email]
http://ffmpeg.org/mailman/listinfo/ffmpeg-user

To unsubscribe, visit link above, or email
[hidden email] with subject "unsubscribe".
Reply | Threaded
Open this post in threaded view
|

Re: Copy Audio

Chris-2
> Can you post the complete terminal output and command line of what you see
> when you run the process with 4.0?

Command line:

ffmpeg -y -i "D:\Videos\Trains\December_6_2018_San_Jose\C0073.MP4"  -crf 1  -c:v libx264  -pix_fmt yuv420p  -s 1280x720  -r 59.94  -vf eq=gamma=0.83,lutyuv=y='clip(val,26,220)'  -c:a copy  processed.mp4

ffmpeg output:

ffmpeg version 4.0 Copyright (c) 2000-2018 the FFmpeg developers
  built with gcc 7.3.0 (GCC)
  configuration: --enable-gpl --enable-version3 --enable-sdl2 --enable-bzlib --enable-fontconfig --enable-gnutls --enable-iconv --enable-libass --enable-libbluray --enable-libfreetype --enable-libmp3lame --enable-libopencore-amrnb --enable-libopencore-amrwb --enable-libopenjpeg --enable-libopus --enable-libshine --enable-libsnappy --enable-libsoxr --enable-libtheora --enable-libtwolame --enable-libvpx --enable-libwavpack --enable-libwebp --enable-libx264 --enable-libx265 --enable-libxml2 --enable-libzimg --enable-lzma --enable-zlib --enable-gmp --enable-libvidstab --enable-libvorbis --enable-libvo-amrwbenc --enable-libmysofa --enable-libspeex --enable-libxvid --enable-libaom --enable-libmfx --enable-amf --enable-ffnvcodec --enable-cuvid --enable-d3d11va --enable-nvenc --enable-nvdec --enable-dxva2 --enable-avisynth
  libavutil      56. 14.100 / 56. 14.100
  libavcodec     58. 18.100 / 58. 18.100
  libavformat    58. 12.100 / 58. 12.100
  libavdevice    58.  3.100 / 58.  3.100
  libavfilter     7. 16.100 /  7. 16.100
  libswscale      5.  1.100 /  5.  1.100
  libswresample   3.  1.100 /  3.  1.100
  libpostproc    55.  1.100 / 55.  1.100
Guessed Channel Layout for Input Stream #0.1 : stereo
Input #0, mov,mp4,m4a,3gp,3g2,mj2, from 'D:\Videos\Trains\December_6_2018_San_Jose\C0073.MP4':
  Metadata:
    major_brand     : XAVC
    minor_version   : 16785407
    compatible_brands: XAVCmp42iso2
    creation_time   : 2018-12-06T23:42:50.000000Z
  Duration: 00:01:42.10, start: 0.000000, bitrate: 51786 kb/s
    Stream #0:0(und): Video: h264 (High) (avc1 / 0x31637661), yuv420p(tv, bt709/bt709/iec61966-2-4), 1920x1080 [SAR 1:1 DAR 16:9], 49756 kb/s, 59.94 fps, 59.94 tbr, 60k tbn, 119.88 tbc (default)
    Metadata:
      creation_time   : 2018-12-06T23:42:50.000000Z
      handler_name    : Video Media Handler
      encoder         : AVC Coding
    Stream #0:1(und): Audio: pcm_s16be (twos / 0x736F7774), 48000 Hz, stereo, s16, 1536 kb/s (default)
    Metadata:
      creation_time   : 2018-12-06T23:42:50.000000Z
      handler_name    : Sound Media Handler
    Stream #0:2(und): Data: none (rtmd / 0x646D7472), 491 kb/s (default)
    Metadata:
      creation_time   : 2018-12-06T23:42:50.000000Z
      handler_name    : Timed Metadata Media Handler
      timecode        : 00:57:25:58
Stream mapping:
  Stream #0:0 -> #0:0 (h264 (native) -> h264 (libx264))
  Stream #0:1 -> #0:1 (copy)
Press [q] to stop, [?] for help
[libx264 @ 00000272112b7e40] using SAR=1/1
[libx264 @ 00000272112b7e40] using cpu capabilities: MMX2 SSE2Fast SSSE3 SSE4.2 AVX
[libx264 @ 00000272112b7e40] profile High, level 3.2
[libx264 @ 00000272112b7e40] 264 - core 155 r2901 7d0ff22 - H.264/MPEG-4 AVC codec - Copyleft 2003-2018 - http://www.videolan.org/x264.html - options: cabac=1 ref=3 deblock=1:0:0 analyse=0x3:0x113 me=hex subme=7 psy=1 psy_rd=1.00:0.00 mixed_ref=1 me_range=16 chroma_me=1 trellis=1 8x8dct=1 cqm=0 deadzone=21,11 fast_pskip=1 chroma_qp_offset=-2 threads=12 lookahead_threads=2 sliced_threads=0 nr=0 decimate=1 interlaced=0 bluray_compat=0 constrained_intra=0 bframes=3 b_pyramid=2 b_adapt=1 b_bias=0 direct=1 weightb=1 open_gop=0 weightp=2 keyint=250 keyint_min=25 scenecut=40 intra_refresh=0 rc_lookahead=40 rc=crf mbtree=1 crf=1.0 qcomp=0.60 qpmin=0 qpmax=69 qpstep=4 ip_ratio=1.40 aq=1:1.00
Output #0, mp4, to 'processed.mp4':
  Metadata:
    major_brand     : XAVC
    minor_version   : 16785407
    compatible_brands: XAVCmp42iso2
    encoder         : Lavf58.12.100
    Stream #0:0(und): Video: h264 (libx264) (avc1 / 0x31637661), yuv420p, 1280x720 [SAR 1:1 DAR 16:9], q=-1--1, 59.94 fps, 11988 tbn, 59.94 tbc (default)
    Metadata:
      creation_time   : 2018-12-06T23:42:50.000000Z
      handler_name    : Video Media Handler
      encoder         : Lavc58.18.100 libx264
    Side data:
      cpb: bitrate max/min/avg: 0/0/0 buffer size: 0 vbv_delay: -1
    Stream #0:1(und): Audio: pcm_s16be (twos / 0x736F7774), 48000 Hz, stereo, s16, 1536 kb/s (default)
    Metadata:
      creation_time   : 2018-12-06T23:42:50.000000Z
      handler_name    : Sound Media Handler
frame=   35 fps=0.0 q=0.0 size=       0kB time=00:00:00.49 bitrate=   0.8kbitframe=   61 fps= 55 q=9.0 size=    1536kB time=00:00:00.99 bitrate=12695.4kbiframe=   76 fps= 47 q=9.0 size=    4608kB time=00:00:00.99 bitrate=38085.5kbiframe=   95 fps= 45 q=9.0 size=    8192kB time=00:00:01.49 bitrate=44989.4kbiframe=  109 fps= 39 q=9.0 size=   11264kB time=00:00:01.49 bitrate=61860.4kbiframe=  125 fps= 37 q=9.0 size=   14592kB time=00:00:01.99 bitrate=60004.0kbiframe=  141 fps= 36 q=9.0 size=   17920kB time=00:00:01.99 bitrate=73689.1kbiframe=  157 fps= 35 q=9.0 size=   21760kB time=00:00:02.49 bitrate=71513.1kbiframe=  174 fps= 35 q=9.0 size=   25344kB time=00:00:02.99 bitrate=69364.1kbiframe=  189 fps= 34 q=9.0 size=   28672kB time=00:00:02.99 bitrate=78472.5kbiframe=  203 fps= 34 q=9.0 size=   31488kB time=00:00:03.49 bitrate=73833.6kbiframe=  218 fps= 33 q=9.0 size=   34816kB time=00:00:03.49 bitrate=81637.2kbiframe=  224 fps= 32 q=9.0 size=   36096kB time=00:00:03.49 bitrate=84638.5kbiframe=  235 fps= 31 q=9.0 size=   38656kB time=00:00:03.99 bitrate=79283.2kbiframe=  253 fps= 31 q=9.0 size=   42752kB time=00:00:03.99 bitrate=87684.1kbiframe=  265 fps= 30 q=9.0 size=   45312kB time=00:00:04.49 bitrate=82585.9kbiframe=  283 fps= 31 q=9.0 size=   49408kB time=00:00:04.49 bitrate=90051.3kbiframe=  294 fps= 30 q=9.0 size=   51968kB time=00:00:04.99 bitrate=85226.8kbiframe=  312 fps= 30 q=9.0 size=   56576kB time=00:00:04.99 bitrate=92783.9kbiframe=  325 fps= 30 q=9.0 size=   59904kB time=00:00:05.49 bitrate=89294.7kbiframe=  341 fps= 30 q=9.0 size=   63744kB time=00:00:05.49 bitrate=95018.7kbiframe=  357 fps= 30 q=9.0 size=   67328kB time=00:00:05.99 bitrate=91984.0kbiframe=  373 fps= 29 q=9.0 size=   70912kB time=00:00:05.99 bitrate=96880.5kbiframe=  387 fps= 29 q=9.0 size=   73984kB time=00:00:06.49 bitrate=93290.5kbiframe=  402 fps= 29 q=9.0 size=   77568kB time=00:00:06.49 bitrate=97809.8kbiframe=  417 fps= 29 q=9.0 size=   81152kB time=00:00:06.99 bitrate=95009.5kbiframe=  430 fps= 29 q=9.0 size=   83968kB time=00:00:06.99 bitrate=98306.4kbiframe=  445 fps= 29 q=9.0 size=   87808kB time=00:00:07.49 bitrate=95939.6kbiframe=  458 fps= 29 q=9.0 size=   90624kB time=00:00:07.49 bitrate=99016.4kbiframe=  471 fps= 28 q=9.0 size=   93696kB time=00:00:07.49 bitrate=102372.9kbframe=  486 fps= 28 q=9.0 size=   97536kB time=00:00:07.99 bitrate=99899.8kbiframe=  498 fps= 28 q=9.0 size=  100352kB time=00:00:07.99 bitrate=102784.0kbframe=  513 fps= 28 q=9.0 size=  103680kB time=00:00:08.49 bitrate=99938.8kbiframe=  526 fps= 28 q=9.0 size=  106752kB time=00:00:08.49 bitrate=102900.0kbframe=  539 fps= 28 q=9.0 size=  109824kB time=00:00:08.99 bitrate=99973.5kbiframe=  551 fps= 28 q=9.0 size=  112384kB time=00:00:08.99 bitrate=102303.9kbframe=  563 fps= 28 q=9.0 size=  115200kB time=00:00:09.49 bitrate=99342.3kbiframe=  577 fps= 28 q=9.0 size=  118272kB time=00:00:09.49 bitrate=101991.4kbframe=  591 fps= 28 q=9.0 size=  121344kB time=00:00:09.49 bitrate=104640.6kbframe=  604 fps= 28 q=9.0 size=  124160kB time=00:00:10.00 bitrate=101710.2kbframe=  617 fps= 28 q=9.0 size=  126976kB time=00:00:10.00 bitrate=104017.0kbframe=  631 fps= 28 q=9.0 size=  130304kB time=00:00:10.50 bitrate=101655.5kbframe=  646 fps= 28 q=9.0 size=  133888kB time=00:00:10.50 bitrate=104451.5kbframe=  657 fps= 28 q=9.0 size=  136192kB time=00:00:11.00 bitrate=101415.2kbframe=  671 fps= 27 q=9.0 size=  139520kB time=00:00:11.00 bitrate=103893.4kbframe=  684 fps= 27 q=9.0 size=  142592kB time=00:00:11.50 bitrate=101560.4kbframe=  699 fps= 27 q=9.0 size=  145920kB time=00:00:11.50 bitrate=103930.8kbframe=  711 fps= 27 q=9.0 size=  148736kB time=00:00:11.51 bitrate=105846.0kbframe=  727 fps= 27 q=9.0 size=  152320kB time=00:00:12.00 bitrate=103965.0kbframe=  740 fps= 27 q=9.0 size=  155136kB time=00:00:12.00 bitrate=105887.1kbframe=  755 fps= 27 q=9.0 size=  158464kB time=00:00:12.50 bitrate=103828.8kbframe=  770 fps= 27 q=9.0 size=  161792kB time=00:00:12.50 bitrate=106009.4kbframe=  780 fps= 27 q=9.0 size=  163584kB time=00:00:13.00 bitrate=103058.0kbframe=  795 fps= 27 q=9.0 size=  166656kB time=00:00:13.00 bitrate=104993.4kbframe=  812 fps= 27 q=9.0 size=  170240kB time=00:00:13.50 bitrate=103276.1kbframe=  825 fps= 27 q=9.0 size=  172800kB time=00:00:13.50 bitrate=104829.2kbframe=  839 fps= 27 q=9.0 size=  175616kB time=00:00:14.00 bitrate=102729.9kbframe=  853 fps= 27 q=9.0 size=  178432kB time=00:00:14.00 bitrate=104377.2kbframe=  868 fps= 27 q=9.0 size=  181760kB time=00:00:14.50 bitrate=102655.1kbframe=  883 fps= 27 q=9.0 size=  184576kB time=00:00:14.50 bitrate=104245.5kbframe=  897 fps= 27 q=9.0 size=  187648kB time=00:00:15.00 bitrate=102445.6kbframe=  915 fps= 27 q=9.0 size=  191232kB time=00:00:15.00 bitrate=104402.2kbframe=  929 fps= 27 q=9.0 size=  194304kB time=00:00:15.50 bitrate=102655.3kbframe=  945 fps= 27 q=9.0 size=  197632kB time=00:00:15.50 bitrate=104413.5kbframe=  961 fps= 27 q=9.0 size=  200960kB time=00:00:16.00 bitrate=102851.9kbframe=  977 fps= 27 q=9.0 size=  204288kB time=00:00:16.00 bitrate=104555.2kbframe=  993 fps= 27 q=9.0 size=  207872kB time=00:00:16.50 bitrate=103163.6kbframe= 1009 fps= 27 q=9.0 size=  211200kB time=00:00:16.50 bitrate=104815.3kbframe= 1027 fps= 27 q=9.0 size=  214784kB time=00:00:17.00 bitrate=103457.0kbframe= 1039 fps= 27 q=9.0 size=  217344kB time=00:00:17.00 bitrate=104690.1kbframe= 1053 fps= 27 q=9.0 size=  220416kB time=00:00:17.50 bitrate=103134.7kbframe= 1067 fps= 27 q=9.0 size=  223744kB time=00:00:17.50 bitrate=104691.9kbframe= 1083 fps= 27 q=9.0 size=  226816kB time=00:00:18.00 bitrate=103179.7kbframe= 1099 fps= 27 q=9.0 size=  230144kB time=00:00:18.00 bitrate=104693.6kbframe= 1115 fps= 27 q=9.0 size=  233216kB time=00:00:18.50 bitrate=103222.2kbframe= 1129 fps= 27 q=9.0 size=  235776kB time=00:00:18.50 bitrate=104355.3kbframe= 1147 fps= 27 q=9.0 size=  239616kB time=00:00:19.00 bitrate=103262.5kbframe= 1163 fps= 27 q=9.0 size=  242944kB time=00:00:19.50 bitrate=102010.8kbframe= 1179 fps= 27 q=9.0 size=  246016kB time=00:00:19.50 bitrate=103300.8kbframe= 1195 fps= 27 q=9.0 size=  249344kB time=00:00:20.01 bitrate=102079.4kbframe= 1211 fps= 27 q=9.0 size=  252416kB time=00:00:20.01 bitrate=103337.1kbframe= 1227 fps= 27 q=9.0 size=  256000kB time=00:00:20.51 bitrate=102246.9kbframe= 1243 fps= 27 q=9.0 size=  259072kB time=00:00:20.51 bitrate=103473.9kbframe= 1259 fps= 27 q=9.0 size=  262400kB time=00:00:21.01 bitrate=102306.6kbframe= 1273 fps= 27 q=9.0 size=  264960kB time=00:00:21.01 bitrate=103304.7kbframe= 1287 fps= 27 q=9.0 size=  268032kB time=00:00:21.51 bitrate=102071.1kbframe= 1303 fps= 27 q=9.0 size=  270848kB time=00:00:21.51 bitrate=103143.4kbframe= 1319 fps= 27 q=9.0 size=  274176kB time=00:00:22.01 bitrate=102036.8kbframe= 1337 fps= 27 q=9.0 size=  277760kB time=00:00:22.01 bitrate=103370.6kbframe= 1353 fps= 27 q=9.0 size=  281088kB time=00:00:22.51 bitrate=102283.5kbframe= 1369 fps= 27 q=9.0 size=  284672kB time=00:00:22.51 bitrate=103587.6kbframe= 1382 fps= 27 q=9.0 size=  287488kB time=00:00:23.01 bitrate=102337.2kbframe= 1395 fps= 27 q=9.0 size=  290304kB time=00:00:23.01 bitrate=103339.6kbframe= 1412 fps= 27 q=9.0 size=  294144kB time=00:00:23.51 bitrate=102477.8kbframe= 1425 fps= 27 q=9.0 size=  296960kB time=00:00:23.51 bitrate=103458.8kbframe= 1441 fps= 27 q=9.0 size=  300288kB time=00:00:24.01 bitrate=102437.9kbframe= 1458 fps= 27 q=9.0 size=  303616kB time=00:00:24.01 bitrate=103573.1kbframe= 1471 fps= 27 q=9.0 size=  306176kB time=00:00:24.51 bitrate=102314.0kbframe= 1487 fps= 27 q=9.0 size=  308992kB time=00:00:24.51 bitrate=103255.0kbframe= 1503 fps= 27 q=9.0 size=  312064kB time=00:00:25.01 bitrate=102195.1kbframe= 1521 fps= 28 q=9.0 size=  315136kB time=00:00:25.02 bitrate=103160.6kbframe= 1537 fps= 28 q=9.0 size=  318208kB time=00:00:25.51 bitrate=102163.1kbframe= 1551 fps= 28 q=9.0 size=  320768kB time=00:00:25.51 bitrate=102985.0kbframe= 1570 fps= 28 q=9.0 size=  324352kB time=00:00:26.01 bitrate=102132.3kbframe= 1587 fps= 28 q=9.0 size=  327680kB time=00:00:26.51 bitrate=101232.7kbframe= 1607 fps= 28 q=9.0 size=  331520kB time=00:00:26.51 bitrate=102419.1kbframe= 1623 fps= 28 q=9.0 size=  334848kB time=00:00:27.01 bitrate=101530.8kbframe= 1639 fps= 28 q=9.0 size=  337920kB time=00:00:27.01 bitrate=102462.3kbframe= 1657 fps= 28 q=9.0 size=  341248kB time=00:00:27.51 bitrate=101589.4kbframe= 1673 fps= 28 q=9.0 size=  344320kB time=00:00:28.01 bitrate=100672.9kbframe= 1689 fps= 28 q=9.0 size=  347392kB time=00:00:28.01 bitrate=101571.1kbframe= 1705 fps= 28 q=9.0 size=  350720kB time=00:00:28.51 bitrate=100744.5kbframe= 1724 fps= 28 q=9.0 size=  354304kB time=00:00:28.51 bitrate=101774.0kbframe= 1737 fps= 28 q=9.0 size=  356864kB time=00:00:29.01 bitrate=100741.4kbframe= 1754 fps= 28 q=9.0 size=  359936kB time=00:00:29.01 bitrate=101608.6kbframe= 1772 fps= 28 q=9.0 size=  363520kB time=00:00:29.51 bitrate=100880.4kbframe= 1785 fps= 28 q=9.0 size=  365824kB time=00:00:29.51 bitrate=101519.8kbframe= 1801 fps= 28 q=9.0 size=  369152kB time=00:00:30.02 bitrate=100735.4kbframe= 1818 fps= 28 q=9.0 size=  372736kB time=00:00:30.02 bitrate=101713.4kbframe= 1833 fps= 28 q=9.0 size=  376064kB time=00:00:30.52 bitrate=100938.7kbframe= 1847 fps= 28 q=9.0 size=  379136kB time=00:00:30.52 bitrate=101763.3kbframe= 1861 fps= 28 q=9.0 size=  382208kB time=00:00:31.02 bitrate=100932.6kbframe= 1877 fps= 28 q=9.0 size=  385536kB time=00:00:31.02 bitrate=101811.5kbframe= 1893 fps= 28 q=9.0 size=  388864kB time=00:00:31.52 bitrate=101059.8kbframe= 1909 fps= 28 q=9.0 size=  392192kB time=00:00:31.52 bitrate=101924.7kbframe= 1926 fps= 28 q=9.0 size=  395776kB time=00:00:32.02 bitrate=101248.5kbframe= 1941 fps= 28 q=9.0 size=  398848kB time=00:00:32.03 bitrate=102003.1kbframe= 1957 fps= 28 q=9.0 size=  401920kB time=00:00:32.52 bitrate=101238.0kbframe= 1971 fps= 28 q=9.0 size=  404736kB time=00:00:32.52 bitrate=101947.3kbframe= 1988 fps= 28 q=9.0 size=  408064kB time=00:00:33.02 bitrate=101227.7kbframe= 2005 fps= 28 q=9.0 size=  411136kB time=00:00:33.52 bitrate=100467.1kbframe= 2022 fps= 28 q=9.0 size=  414464kB time=00:00:33.52 bitrate=101280.4kbframe= 2035 fps= 28 q=9.0 size=  417024kB time=00:00:34.02 bitrate=100406.9kbframe= 2054 fps= 28 q=9.0 size=  420352kB time=00:00:34.02 bitrate=101208.2kbframe= 2070 fps= 28 q=9.0 size=  423680kB time=00:00:34.52 bitrate=100530.6kbframe= 2086 fps= 28 q=9.0 size=  426752kB time=00:00:34.52 bitrate=101259.6kbframe= 2099 fps= 28 q=9.0 size=  429056kB time=00:00:35.02 bitrate=100351.5kbframe= 2116 fps= 28 q=9.0 size=  432384kB time=00:00:35.02 bitrate=101129.9kbframe= 2131 fps= 28 q=9.0 size=  435456kB time=00:00:35.52 bitrate=100413.5kbframe= 2147 fps= 28 q=9.0 size=  438528kB time=00:00:35.52 bitrate=101121.9kbframe= 2165 fps= 28 q=9.0 size=  441856kB time=00:00:36.02 bitrate=100473.8kbframe= 2179 fps= 28 q=9.0 size=  444928kB time=00:00:36.02 bitrate=101172.3kbframe= 2196 fps= 28 q=9.0 size=  448256kB time=00:00:36.52 bitrate=100532.4kbframe= 2211 fps= 28 q=9.0 size=  451584kB time=00:00:36.52 bitrate=101278.8kbframe= 2227 fps= 28 q=9.0 size=  454656kB time=00:00:37.02 bitrate=100589.4kbframe= 2246 fps= 28 q=9.0 size=  458496kB time=00:00:37.52 bitrate=100086.1kbframe= 2259 fps= 28 q=9.0 size=  461056kB time=00:00:37.52 bitrate=100645.0kbframe= 2275 fps= 28 q=9.0 size=  464128kB time=00:00:38.02 bitrate=99982.1kbiframe= 2292 fps= 28 q=9.0 size=  467456kB time=00:00:38.02 bitrate=100699.0kbframe= 2303 fps= 28 q=9.0 size=  469760kB time=00:00:38.52 bitrate=99880.8kbiframe= 2321 fps= 28 q=9.0 size=  473600kB time=00:00:38.52 bitrate=100697.3kbframe= 2335 fps= 28 q=9.0 size=  476160kB time=00:00:39.02 bitrate=99943.3kbiframe= 2349 fps= 28 q=9.0 size=  478720kB time=00:00:39.02 bitrate=100480.6kbframe= 2363 fps= 28 q=9.0 size=  481792kB time=00:00:39.52 bitrate=99845.0kbiframe= 2379 fps= 28 q=9.0 size=  484864kB time=00:00:39.52 bitrate=100481.7kbframe= 2395 fps= 28 q=9.0 size=  488192kB time=00:00:40.03 bitrate=99906.4kbiframe= 2413 fps= 28 q=9.0 size=  491520kB time=00:00:40.03 bitrate=100587.4kbframe= 2427 fps= 28 q=9.0 size=  494592kB time=00:00:40.53 bitrate=99966.2kbiframe= 2443 fps= 28 q=9.0 size=  497408kB time=00:00:40.53 bitrate=100535.4kbframe= 2459 fps= 28 q=9.0 size=  500736kB time=00:00:41.03 bitrate=99973.5kbiframe= 2475 fps= 28 q=9.0 size=  503808kB time=00:00:41.03 bitrate=100586.8kbframe= 2491 fps= 28 q=9.0 size=  506880kB time=00:00:41.53 bitrate=99980.6kbiframe= 2507 fps= 28 q=9.0 size=  509952kB time=00:00:41.53 bitrate=100586.6kbframe= 2525 fps= 28 q=9.0 size=  513536kB time=00:00:42.03 bitrate=100087.3kbframe= 2541 fps= 28 q=9.0 size=  516864kB time=00:00:42.03 bitrate=100735.9kbframe= 2554 fps= 28 q=9.0 size=  519168kB time=00:00:42.53 bitrate=99994.3kbiframe= 2571 fps= 28 q=9.0 size=  523008kB time=00:00:42.53 bitrate=100733.9kbframe= 2587 fps= 28 q=9.0 size=  526336kB time=00:00:43.03 bitrate=100195.9kbframe= 2603 fps= 28 q=9.0 size=  529664kB time=00:00:43.53 bitrate=99670.2kbiframe= 2619 fps= 28 q=9.0 size=  532736kB time=00:00:43.53 bitrate=100248.2kbframe= 2635 fps= 28 q=9.0 size=  536064kB time=00:00:44.03 bitrate=99727.9kbiframe= 2652 fps= 28 q=9.0 size=  539392kB time=00:00:44.03 bitrate=100347.1kbframe= 2664 fps= 28 q=9.0 size=  541696kB time=00:00:44.53 bitrate=99643.1kbiframe= 2681 fps= 28 q=9.0 size=  545024kB time=00:00:44.53 bitrate=100255.3kbframe= 2693 fps= 28 q=9.0 size=  547328kB time=00:00:45.03 bitrate=99560.2kbiframe= 2708 fps= 28 q=9.0 size=  550400kB time=00:00:45.03 bitrate=100119.0kbframe= 2723 fps= 28 q=9.0 size=  553216kB time=00:00:45.53 bitrate=99525.2kbiframe= 2739 fps= 28 q=9.0 size=  556288kB time=00:00:45.53 bitrate=100077.9kbframe= 2755 fps= 28 q=9.0 size=  559360kB time=00:00:46.03 bitrate=99536.5kbiframe= 2771 fps= 28 q=9.0 size=  562432kB time=00:00:46.03 bitrate=100083.1kbframe= 2787 fps= 28 q=9.0 size=  565760kB time=00:00:46.53 bitrate=99592.6kbiframe= 2800 fps= 28 q=9.0 size=  568576kB time=00:00:46.53 bitrate=100088.3kbframe= 2817 fps= 28 q=9.0 size=  572416kB time=00:00:47.03 bitrate=99692.1kbiframe= 2833 fps= 28 q=9.0 size=  575744kB time=00:00:47.03 bitrate=100271.7kbframe= 2849 fps= 28 q=9.0 size=  579072kB time=00:00:47.53 bitrate=99789.5kbiframe= 2865 fps= 28 q=9.0 size=  582144kB time=00:00:47.53 bitrate=100318.8kbframe= 2882 fps= 28 q=9.0 size=  585472kB time=00:00:48.03 bitrate=99841.2kbiframe= 2901 fps= 28 q=9.0 size=  589056kB time=00:00:48.03 bitrate=100452.4kbframe= 2917 fps= 28 q=9.0 size=  592128kB time=00:00:48.53 bitrate=99935.0kbiframe= 2931 fps= 28 q=9.0 size=  594688kB time=00:00:48.54 bitrate=100346.8kbframe= 2951 fps= 28 q=9.0 size=  598528kB time=00:00:49.03 bitrate=99984.2kbiframe= 2967 fps= 28 q=9.0 size=  601856kB time=00:00:49.53 bitrate=99524.4kbiframe= 2987 fps= 28 q=9.0 size=  605440kB time=00:00:49.53 bitrate=100117.0kbframe= 3003 fps= 28 q=9.0 size=  608512kB time=00:00:50.04 bitrate=99618.6kbiframe= 3019 fps= 28 q=9.0 size=  611584kB time=00:00:50.04 bitrate=100121.5kbframe= 3036 fps= 28 q=9.0 size=  614912kB time=00:00:50.54 bitrate=99669.4kbiframe= 3051 fps= 28 q=9.0 size=  617984kB time=00:00:50.54 bitrate=100167.4kbframe= 3069 fps= 28 q=9.0 size=  621312kB time=00:00:51.04 bitrate=99719.3kbiframe= 3087 fps= 28 q=9.0 size=  625152kB time=00:00:51.54 bitrate=99361.3kbiframe= 3103 fps= 28 q=9.0 size=  628480kB time=00:00:51.54 bitrate=99890.2kbiframe= 3118 fps= 28 q=9.0 size=  631296kB time=00:00:52.04 bitrate=99372.8kbiframe= 3135 fps= 28 q=9.0 size=  634624kB time=00:00:52.04 bitrate=99896.7kbiframe= 3153 fps= 28 q=9.0 size=  637952kB time=00:00:52.54 bitrate=99464.0kbiframe= 3171 fps= 28 q=9.0 size=  641536kB time=00:00:52.54 bitrate=100022.8kbframe= 3189 fps= 28 q=9.0 size=  644864kB time=00:00:53.04 bitrate=99593.0kbiframe= 3204 fps= 28 q=9.0 size=  647680kB time=00:00:53.54 bitrate=99092.9kbiframe= 3219 fps= 28 q=9.0 size=  650496kB time=00:00:53.54 bitrate=99523.7kbiframe= 3236 fps= 28 q=9.0 size=  653568kB time=00:00:54.04 bitrate=99067.7kbiframe= 3255 fps= 28 q=9.0 size=  657152kB time=00:00:54.04 bitrate=99610.9kbiframe= 3273 fps= 28 q=9.0 size=  660224kB time=00:00:54.54 bitrate=99158.3kbiframe= 3291 fps= 28 q=9.0 size=  663552kB time=00:00:54.54 bitrate=99658.1kbiframe= 3301 fps= 28 q=9.0 size=  665344kB time=00:00:55.04 bitrate=99018.7kbiframe= 3321 fps= 28 q=9.0 size=  669184kB time=00:00:55.04 bitrate=99590.1kbiframe= 3337 fps= 28 q=9.0 size=  672000kB time=00:00:55.54 bitrate=99108.1kbiframe= 3357 fps= 28 q=9.0 size=  675840kB time=00:00:56.04 bitrate=98784.3kbiframe= 3373 fps= 28 q=9.0 size=  678656kB time=00:00:56.04 bitrate=99195.9kbiframe= 3392 fps= 29 q=9.0 size=  682240kB time=00:00:56.54 bitrate=98837.1kbiframe= 3405 fps= 29 q=9.0 size=  684544kB time=00:00:56.54 bitrate=99170.9kbiframe= 3422 fps= 29 q=9.0 size=  687360kB time=00:00:57.04 bitrate=98705.2kbiframe= 3441 fps= 29 q=9.0 size=  691200kB time=00:00:57.04 bitrate=99256.7kbiframe= 3457 fps= 29 q=9.0 size=  694016kB time=00:00:57.54 bitrate=98794.3kbiframe= 3474 fps= 29 q=9.0 size=  697344kB time=00:00:58.04 bitrate=98412.1kbiframe= 3492 fps= 29 q=9.0 size=  700672kB time=00:00:58.04 bitrate=98881.8kbiframe= 3505 fps= 29 q=9.0 size=  703488kB time=00:00:58.54 bitrate=98430.5kbiframe= 3521 fps= 29 q=9.0 size=  706304kB time=00:00:58.54 bitrate=98824.5kbiframe= 3537 fps= 29 q=9.0 size=  709632kB time=00:00:59.04 bitrate=98448.6kbiframe= 3553 fps= 29 q=9.0 size=  712704kB time=00:00:59.04 bitrate=98874.7kbiframe= 3569 fps= 29 q=9.0 size=  716032kB time=00:00:59.54 bitrate=98501.6kbiframe= 3583 fps= 29 q=9.0 size=  718848kB time=00:00:59.54 bitrate=98888.9kbiframe= 3599 fps= 29 q=9.0 size=  721920kB time=00:01:00.05 bitrate=98483.8kbiframe= 3616 fps= 29 q=9.0 size=  724992kB time=00:01:00.05 bitrate=98902.9kbiframe= 3631 fps= 29 q=9.0 size=  728064kB time=00:01:00.55 bitrate=98501.0kbiframe= 3649 fps= 29 q=9.0 size=  731392kB time=00:01:00.55 bitrate=98951.2kbiframe= 3667 fps= 29 q=9.0 size=  734976kB time=00:01:01.05 bitrate=98620.9kbiframe= 3687 fps= 29 q=9.0 size=  738560kB time=00:01:01.55 bitrate=98296.0kbiframe= 3703 fps= 29 q=9.0 size=  741632kB time=00:01:01.55 bitrate=98704.9kbiframe= 3719 fps= 29 q=9.0 size=  744704kB time=00:01:02.05 bitrate=98314.3kbiframe= 3737 fps= 29 q=9.0 size=  747776kB time=00:01:02.05 bitrate=98719.9kbiframe= 3751 fps= 29 q=9.0 size=  750592kB time=00:01:02.55 bitrate=98298.8kbiframe= 3769 fps= 29 q=9.0 size=  753920kB time=00:01:02.55 bitrate=98734.6kbiframe= 3786 fps= 29 q=9.0 size=  757248kB time=00:01:03.05 bitrate=98383.3kbiframe= 3799 fps= 29 q=9.0 size=  759808kB time=00:01:03.05 bitrate=98715.9kbiframe= 3817 fps= 29 q=9.0 size=  763392kB time=00:01:03.55 bitrate=98400.4kbiframe= 3833 fps= 29 q=9.0 size=  766720kB time=00:01:04.05 bitrate=98057.2kbiframe= 3849 fps= 29 q=9.0 size=  769792kB time=00:01:04.05 bitrate=98450.1kbiframe= 3865 fps= 29 q=9.0 size=  773120kB time=00:01:04.55 bitrate=98109.1kbiframe= 3882 fps= 29 q=9.0 size=  776448kB time=00:01:04.55 bitrate=98531.4kbiframe= 3897 fps= 29 q=9.0 size=  779776kB time=00:01:05.05 bitrate=98192.4kbiframe= 3911 fps= 29 q=9.0 size=  782336kB time=00:01:05.05 bitrate=98514.8kbiframe= 3927 fps= 29 q=9.0 size=  785664kB time=00:01:05.55 bitrate=98178.5kbiframe= 3942 fps= 29 q=9.0 size=  788736kB time=00:01:05.55 bitrate=98562.4kbiframe= 3956 fps= 29 q=9.0 size=  791552kB time=00:01:06.05 bitrate=98164.9kbiframe= 3972 fps= 29 q=9.0 size=  794624kB time=00:01:06.05 bitrate=98545.8kbiframe= 3985 fps= 29 q=9.0 size=  797184kB time=00:01:06.55 bitrate=98119.9kbiframe= 4003 fps= 29 q=9.0 size=  800512kB time=00:01:06.55 bitrate=98529.5kbiframe= 4017 fps= 29 q=9.0 size=  803328kB time=00:01:07.05 bitrate=98138.1kbiframe= 4033 fps= 29 q=9.0 size=  806400kB time=00:01:07.05 bitrate=98513.4kbiframe= 4048 fps= 29 q=9.0 size=  809472kB time=00:01:07.55 bitrate=98156.1kbiframe= 4063 fps= 29 q=9.0 size=  812544kB time=00:01:07.55 bitrate=98528.6kbiframe= 4079 fps= 29 q=9.0 size=  815872kB time=00:01:08.05 bitrate=98204.6kbiframe= 4093 fps= 29 q=9.0 size=  818432kB time=00:01:08.05 bitrate=98512.7kbiframe= 4108 fps= 29 q=9.0 size=  821760kB time=00:01:08.55 bitrate=98191.2kbiframe= 4123 fps= 29 q=9.0 size=  824576kB time=00:01:08.55 bitrate=98527.7kbiframe= 4137 fps= 29 q=9.0 size=  827392kB time=00:01:09.05 bitrate=98147.7kbiframe= 4155 fps= 29 q=9.0 size=  830976kB time=00:01:09.05 bitrate=98572.8kbiframe= 4171 fps= 29 q=9.0 size=  834048kB time=00:01:09.55 bitrate=98225.3kbiframe= 4185 fps= 29 q=9.0 size=  836608kB time=00:01:09.55 bitrate=98526.8kbiframe= 4204 fps= 29 q=9.0 size=  840448kB time=00:01:10.06 bitrate=98272.0kbiframe= 4219 fps= 29 q=9.0 size=  843520kB time=00:01:10.06 bitrate=98631.2kbiframe= 4239 fps= 29 q=9.0 size=  847360kB time=00:01:10.56 bitrate=98377.4kbiframe= 4255 fps= 29 q=9.0 size=  850432kB time=00:01:11.06 bitrate=98038.6kbiframe= 4274 fps= 29 q=9.0 size=  854016kB time=00:01:11.06 bitrate=98451.8kbiframe= 4288 fps= 29 q=9.0 size=  856576kB time=00:01:11.56 bitrate=98056.3kbiframe= 4304 fps= 29 q=9.0 size=  859392kB time=00:01:11.56 bitrate=98378.6kbiframe= 4321 fps= 29 q=9.0 size=  862976kB time=00:01:12.06 bitrate=98102.8kbiframe= 4337 fps= 29 q=9.0 size=  865792kB time=00:01:12.06 bitrate=98422.9kbiframe= 4357 fps= 29 q=9.0 size=  869376kB time=00:01:12.56 bitrate=98148.7kbiframe= 4373 fps= 29 q=9.0 size=  872448kB time=00:01:13.06 bitrate=97820.8kbiframe= 4391 fps= 29 q=9.0 size=  875776kB time=00:01:13.06 bitrate=98193.9kbiframe= 4406 fps= 29 q=9.0 size=  878848kB time=00:01:13.56 bitrate=97867.9kbiframe= 4421 fps= 29 q=9.0 size=  881664kB time=00:01:13.56 bitrate=98181.5kbiframe= 4437 fps= 29 q=9.0 size=  884736kB time=00:01:14.06 bitrate=97857.8kbiframe= 4454 fps= 29 q=9.0 size=  887808kB time=00:01:14.06 bitrate=98197.6kbiframe= 4471 fps= 29 q=9.0 size=  891136kB time=00:01:14.56 bitrate=97904.1kbiframe= 4485 fps= 29 q=9.0 size=  893952kB time=00:01:14.56 bitrate=98213.5kbiframe= 4503 fps= 29 q=9.0 size=  897280kB time=00:01:15.06 bitrate=97921.8kbiframe= 4519 fps= 29 q=9.0 size=  900352kB time=00:01:15.06 bitrate=98257.1kbiframe= 4533 fps= 29 q=9.0 size=  903168kB time=00:01:15.56 bitrate=97911.6kbiframe= 4549 fps= 29 q=9.0 size=  906240kB time=00:01:15.56 bitrate=98244.6kbiframe= 4566 fps= 29 q=9.0 size=  909824kB time=00:01:16.06 bitrate=97984.1kbiframe= 4583 fps= 29 q=9.0 size=  913152kB time=00:01:16.56 bitrate=97699.7kbiframe= 4599 fps= 29 q=9.0 size=  916480kB time=00:01:16.56 bitrate=98055.8kbiframe= 4615 fps= 29 q=9.0 size=  919552kB time=00:01:17.06 bitrate=97745.5kbiframe= 4632 fps= 29 q=9.0 size=  922880kB time=00:01:17.06 bitrate=98099.3kbiframe= 4647 fps= 29 q=9.0 size=  925952kB time=00:01:17.56 bitrate=97790.7kbiframe= 4665 fps= 29 q=9.0 size=  929024kB time=00:01:17.56 bitrate=98115.2kbiframe= 4683 fps= 29 q=9.0 size=  932352kB time=00:01:18.06 bitrate=97835.4kbiframe= 4701 fps= 29 q=9.0 size=  935424kB time=00:01:18.07 bitrate=98145.4kbiframe= 4719 fps= 29 q=9.0 size=  939008kB time=00:01:18.56 bitrate=97906.1kbiframe= 4735 fps= 29 q=9.0 size=  941824kB time=00:01:19.06 bitrate=97578.1kbiframe= 4755 fps= 29 q=9.0 size=  945408kB time=00:01:19.06 bitrate=97949.5kbiframe= 4771 fps= 29 q=9.0 size=  948480kB time=00:01:19.56 bitrate=97649.6kbiframe= 4788 fps= 29 q=9.0 size=  951296kB time=00:01:19.56 bitrate=97939.5kbiframe= 4803 fps= 29 q=9.0 size=  954368kB time=00:01:20.07 bitrate=97641.6kbiframe= 4821 fps= 29 q=9.0 size=  958208kB time=00:01:20.07 bitrate=98034.5kbiframe= 4837 fps= 29 q=9.0 size=  961536kB time=00:01:20.57 bitrate=97763.9kbiframe= 4851 fps= 29 q=9.0 size=  964352kB time=00:01:20.58 bitrate=98038.3kbiframe= 4869 fps= 29 q=9.0 size=  968192kB time=00:01:21.07 bitrate=97832.9kbiframe= 4885 fps= 29 q=9.0 size=  971520kB time=00:01:21.57 bitrate=97566.9kbiframe= 4903 fps= 29 q=9.0 size=  974848kB time=00:01:21.57 bitrate=97901.1kbiframe= 4917 fps= 29 q=9.0 size=  977664kB time=00:01:22.07 bitrate=97585.1kbiframe= 4933 fps= 29 q=9.0 size=  980480kB time=00:01:22.07 bitrate=97866.2kbiframe= 4951 fps= 29 q=9.0 size=  983552kB time=00:01:22.57 bitrate=97577.8kbiframe= 4969 fps= 29 q=9.0 size=  986880kB time=00:01:22.57 bitrate=97908.0kbiframe= 4987 fps= 29 q=9.0 size=  990208kB time=00:01:23.07 bitrate=97646.3kbiframe= 5001 fps= 29 q=9.0 size=  993024kB time=00:01:23.07 bitrate=97924.0kbiframe= 5017 fps= 29 q=9.0 size=  996352kB time=00:01:23.57 bitrate=97663.7kbiframe= 5033 fps= 29 q=9.0 size=  999424kB time=00:01:24.07 bitrate=97381.7kbiframe= 5049 fps= 29 q=9.0 size= 1002240kB time=00:01:24.07 bitrate=97656.0kbiframe= 5066 fps= 29 q=9.0 size= 1005824kB time=00:01:24.57 bitrate=97425.3kbiframe= 5079 fps= 29 q=9.0 size= 1008384kB time=00:01:24.57 bitrate=97673.2kbiframe= 5095 fps= 29 q=9.0 size= 1011712kB time=00:01:25.07 bitrate=97419.1kbiframe= 5111 fps= 29 q=9.0 size= 1015040kB time=00:01:25.07 bitrate=97739.5kbiframe= 5125 fps= 29 q=9.0 size= 1017856kB time=00:01:25.57 bitrate=97437.5kbiframe= 5139 fps= 29 q=9.0 size= 1020928kB time=00:01:25.57 bitrate=97731.5kbiframe= 5153 fps= 29 q=9.0 size= 1024000kB time=00:01:26.07 bitrate=97455.6kbiframe= 5168 fps= 29 q=9.0 size= 1027072kB time=00:01:26.07 bitrate=97748.0kbiframe= 5180 fps= 29 q=9.0 size= 1029888kB time=00:01:26.07 bitrate=98016.0kbiframe= 5195 fps= 29 q=9.0 size= 1033472kB time=00:01:26.57 bitrate=97788.5kbiframe= 5208 fps= 29 q=9.0 size= 1036288kB time=00:01:26.57 bitrate=98055.0kbiframe= 5219 fps= 29 q=9.0 size= 1038848kB time=00:01:27.07 bitrate=97732.2kbiframe= 5233 fps= 29 q=9.0 size= 1041920kB time=00:01:27.07 bitrate=98021.2kbiframe= 5247 fps= 29 q=9.0 size= 1044992kB time=00:01:27.57 bitrate=97748.4kbiframe= 5261 fps= 29 q=9.0 size= 1048064kB time=00:01:27.57 bitrate=98035.7kbiframe= 5275 fps= 29 q=9.0 size= 1051392kB time=00:01:28.07 bitrate=97788.2kbiframe= 5290 fps= 29 q=9.0 size= 1054464kB time=00:01:28.07 bitrate=98073.9kbiframe= 5301 fps= 29 q=9.0 size= 1056768kB time=00:01:28.07 bitrate=98288.2kbiframe= 5314 fps= 29 q=9.0 size= 1059840kB time=00:01:28.57 bitrate=98016.9kbiframe= 5328 fps= 29 q=9.0 size= 1063168kB time=00:01:28.57 bitrate=98324.7kbiframe= 5341 fps= 29 q=9.0 size= 1066496kB time=00:01:29.07 bitrate=98078.3kbiframe= 5354 fps= 29 q=9.0 size= 1069312kB time=00:01:29.07 bitrate=98337.3kbiframe= 5370 fps= 29 q=9.0 size= 1072896kB time=00:01:29.57 bitrate=98115.6kbiframe= 5385 fps= 29 q=9.0 size= 1076480kB time=00:01:29.57 bitrate=98443.4kbiframe= 5399 fps= 29 q=9.0 size= 1079808kB time=00:01:30.08 bitrate=98199.1kbiframe= 5413 fps= 29 q=9.0 size= 1083392kB time=00:01:30.08 bitrate=98525.0kbiframe= 5425 fps= 29 q=9.0 size= 1086464kB time=00:01:30.58 bitrate=98258.4kbiframe= 5439 fps= 29 q=9.0 size= 1089792kB time=00:01:30.58 bitrate=98559.4kbiframe= 5453 fps= 29 q=9.0 size= 1093376kB time=00:01:31.08 bitrate=98340.2kbiframe= 5466 fps= 29 q=9.0 size= 1096704kB time=00:01:31.08 bitrate=98639.5kbiframe= 5478 fps= 29 q=9.0 size= 1099776kB time=00:01:31.08 bitrate=98915.8kbiframe= 5492 fps= 29 q=9.0 size= 1103616kB time=00:01:31.58 bitrate=98718.7kbiframe= 5505 fps= 29 q=9.0 size= 1106944kB time=00:01:31.58 bitrate=99016.4kbiframe= 5519 fps= 29 q=9.0 size= 1110272kB time=00:01:32.08 bitrate=98774.3kbiframe= 5533 fps= 29 q=9.0 size= 1114112kB time=00:01:32.08 bitrate=99115.9kbiframe= 5546 fps= 29 q=7.0 size= 1117440kB time=00:01:32.58 bitrate=98874.5kbiframe= 5563 fps= 29 q=9.0 size= 1121536kB time=00:01:32.58 bitrate=99237.0kbiframe= 5579 fps= 29 q=9.0 size= 1125632kB time=00:01:33.08 bitrate=99063.9kbiframe= 5595 fps= 29 q=9.0 size= 1129216kB time=00:01:33.08 bitrate=99379.3kbiframe= 5609 fps= 29 q=9.0 size= 1132800kB time=00:01:33.58 bitrate=99161.5kbiframe= 5624 fps= 29 q=9.0 size= 1136640kB time=00:01:33.58 bitrate=99497.7kbiframe= 5637 fps= 29 q=9.0 size= 1139712kB time=00:01:34.08 bitrate=99235.8kbiframe= 5653 fps= 29 q=9.0 size= 1143296kB time=00:01:34.08 bitrate=99547.9kbiframe= 5669 fps= 29 q=9.0 size= 1146624kB time=00:01:34.58 bitrate=99309.4kbiframe= 5685 fps= 29 q=9.0 size= 1149952kB time=00:01:34.58 bitrate=99597.6kbiframe= 5699 fps= 29 q=9.0 size= 1153024kB time=00:01:35.08 bitrate=99338.0kbiframe= 5713 fps= 29 q=9.0 size= 1156608kB time=00:01:35.08 bitrate=99646.8kbiframe= 5727 fps= 29 q=9.0 size= 1159936kB time=00:01:35.58 bitrate=99410.3kbiframe= 5742 fps= 29 q=9.0 size= 1163520kB time=00:01:35.58 bitrate=99717.4kbiframe= 5757 fps= 29 q=9.0 size= 1167104kB time=00:01:36.08 bitrate=99503.6kbiframe= 5775 fps= 29 q=9.0 size= 1170944kB time=00:01:36.08 bitrate=99831.0kbiframe= 5788 fps= 29 q=9.0 size= 1174272kB time=00:01:36.58 bitrate=99595.9kbiframe= 5803 fps= 29 q=9.0 size= 1177344kB time=00:01:36.58 bitrate=99856.5kbiframe= 5817 fps= 29 q=9.0 size= 1180928kB time=00:01:37.08 bitrate=99644.1kbiframe= 5833 fps= 29 q=9.0 size= 1184256kB time=00:01:37.08 bitrate=99924.9kbiframe= 5847 fps= 29 q=9.0 size= 1187328kB time=00:01:37.58 bitrate=99670.3kbiframe= 5863 fps= 29 q=9.0 size= 1190400kB time=00:01:37.58 bitrate=99928.2kbiframe= 5879 fps= 29 q=9.0 size= 1193728kB time=00:01:38.08 bitrate=99696.2kbiframe= 5897 fps= 29 q=9.0 size= 1197568kB time=00:01:38.08 bitrate=100016.9kbframe= 5913 fps= 29 q=9.0 size= 1201408kB time=00:01:38.58 bitrate=99828.3kbiframe= 5929 fps= 29 q=9.0 size= 1204992kB time=00:01:38.58 bitrate=100126.1kbframe= 5947 fps= 29 q=9.0 size= 1208832kB time=00:01:39.08 bitrate=99937.8kbiframe= 5963 fps= 29 q=9.0 size= 1212672kB time=00:01:39.58 bitrate=99751.4kbiframe= 5981 fps= 29 q=9.0 size= 1216512kB time=00:01:39.58 bitrate=100067.3kbframe= 5997 fps= 29 q=9.0 size= 1220096kB time=00:01:40.09 bitrate=99860.2kbiframe= 6016 fps= 29 q=9.0 size= 1223936kB time=00:01:40.09 bitrate=100174.5kbframe= 6031 fps= 29 q=9.0 size= 1226752kB time=00:01:40.59 bitrate=99905.4kbiframe= 6048 fps= 29 q=9.0 size= 1229824kB time=00:01:40.59 bitrate=100155.6kbframe= 6063 fps= 29 q=9.0 size= 1233152kB time=00:01:41.09 bitrate=99929.4kbiframe= 6081 fps= 29 q=9.0 size= 1236736kB time=00:01:41.10 bitrate=100210.1kbframe= 6097 fps= 29 q=9.0 size= 1239552kB time=00:01:41.59 bitrate=99953.2kbiframe= 6115 fps= 29 q=9.0 size= 1242880kB time=00:01:42.09 bitrate=99730.2kbiframe= 6120 fps= 28 q=-1.0 Lsize= 1255170kB time=00:01:42.09 bitrate=100716.4kbits/s speed=0.474x
video:1235880kB audio:19143kB subtitle:0kB other streams:0kB global headers:0kB muxing overhead: 0.011759%
[libx264 @ 00000272112b7e40] frame I:25    Avg QP: 0.91  size:556621
[libx264 @ 00000272112b7e40] frame P:1588  Avg QP: 2.91  size:355768
[libx264 @ 00000272112b7e40] frame B:4507  Avg QP: 6.95  size:152355
[libx264 @ 00000272112b7e40] consecutive B-frames:  1.2%  1.6%  0.3% 96.8%
[libx264 @ 00000272112b7e40] mb I  I16..4: 22.6% 20.2% 57.2%
[libx264 @ 00000272112b7e40] mb P  I16..4: 16.7%  4.4% 11.1%  P16..4: 28.1% 21.3% 18.2%  0.0%  0.0%    skip: 0.2%
[libx264 @ 00000272112b7e40] mb B  I16..4:  1.3%  1.0%  0.5%  B16..8: 35.6% 15.5% 13.8%  direct:26.5%  skip: 5.8%  L0:62.8% L1:16.5% BI:20.7%
[libx264 @ 00000272112b7e40] 8x8 transform intra:18.0% inter:15.9%
[libx264 @ 00000272112b7e40] coded y,uvDC,uvAC intra: 96.1% 100.0% 100.0% inter: 81.2% 71.4% 63.7%
[libx264 @ 00000272112b7e40] i16 v,h,dc,p:  7% 11% 30% 52%
[libx264 @ 00000272112b7e40] i8 v,h,dc,ddl,ddr,vr,hd,vl,hu:  4% 18% 58%  3%  3%  2%  5%  2%  7%
[libx264 @ 00000272112b7e40] i4 v,h,dc,ddl,ddr,vr,hd,vl,hu:  8% 15% 45%  6%  6%  4%  6%  4%  6%
[libx264 @ 00000272112b7e40] i8c dc,h,v,p: 66% 19%  3% 12%
[libx264 @ 00000272112b7e40] Weighted P-Frames: Y:0.0% UV:0.0%
[libx264 @ 00000272112b7e40] ref P L0: 67.3%  7.5% 15.6%  9.6%
[libx264 @ 00000272112b7e40] ref B L0: 95.3%  3.6%  1.2%
[libx264 @ 00000272112b7e40] ref B L1: 94.6%  5.4%
[libx264 @ 00000272112b7e40] kb/s:99158.80










-----Original Message-----
From: Paul B Mahol <[hidden email]>
To: FFmpeg user questions <[hidden email]>
Sent: Tue, Dec 18, 2018 12:51 am
Subject: Re: [FFmpeg-user] Copy Audio


On 12/18/18, Kieran O Leary <[hidden email]> wrote:
> On Tue, 18 Dec 2018, 03:54 Chris <[hidden email] wrote:
>
>> It worked on the same file 24 hours ago using v 4.0.
>>
>> Reverting.
_______________________________________________
ffmpeg-user mailing list
[hidden email]
http://ffmpeg.org/mailman/listinfo/ffmpeg-user

To unsubscribe, visit link above, or email
[hidden email] with subject "unsubscribe".
_______________________________________________
ffmpeg-user mailing list
[hidden email]
http://ffmpeg.org/mailman/listinfo/ffmpeg-user

To unsubscribe, visit link above, or email
[hidden email] with subject "unsubscribe".
Reply | Threaded
Open this post in threaded view
|

Re: Copy Audio

Paul B Mahol
On 12/18/18, Chris <[hidden email]> wrote:
>> Can you post the complete terminal output and command line of what you see
>> when you run the process with 4.0?
>
> Command line:
>
> ffmpeg -y -i "D:\Videos\Trains\December_6_2018_San_Jose\C0073.MP4"  -crf 1
> -c:v libx264  -pix_fmt yuv420p  -s 1280x720  -r 59.94  -vf
> eq=gamma=0.83,lutyuv=y='clip(val,26,220)'  -c:a copy  processed.mp4
>

This is writing invalid files. mp4 does not allow pcm_s16be.
_______________________________________________
ffmpeg-user mailing list
[hidden email]
http://ffmpeg.org/mailman/listinfo/ffmpeg-user

To unsubscribe, visit link above, or email
[hidden email] with subject "unsubscribe".
Reply | Threaded
Open this post in threaded view
|

Re: Copy Audio

Chris-2
The original audio is:

ID                                       : 2
Format                                   : PCM
Format settings                          : Big / Signed
Codec ID                                 : twos
Duration                                 : 1 min 42 s
Bit rate mode                            : Constant
Bit rate                                 : 1 536 kb/s
Channel(s)                               : 2 channels
Sampling rate                            : 48.0 kHz
Bit depth                                : 16 bits

>>This is writing invalid files. mp4 does not allow pcm_s16be.

That is the audio ffmpeg is being told to copy. In v 4.0 it successfully copies the audio which can then be played back.

In v 4.1 it does not copy the audio but rather throws errors.

-----Original Message-----
From: Paul B Mahol <[hidden email]>
To: FFmpeg user questions <[hidden email]>
Sent: Tue, Dec 18, 2018 11:49 am
Subject: Re: [FFmpeg-user] Copy Audio


On 12/18/18, Chris <[hidden email]> wrote:
>> Can you post the complete terminal output and command line of what you see
>> when you run the process with 4.0?
>
> Command line:
>
> ffmpeg -y -i "D:\Videos\Trains\December_6_2018_San_Jose\C0073.MP4"  -crf 1
> -c:v libx264  -pix_fmt yuv420p  -s 1280x720  -r 59.94  -vf
> eq=gamma=0.83,lutyuv=y='clip(val,26,220)'  -c:a copy  processed.mp4
>

This is writing invalid files. mp4 does not allow pcm_s16be.

_______________________________________________
ffmpeg-user mailing list
[hidden email]
http://ffmpeg.org/mailman/listinfo/ffmpeg-user

To unsubscribe, visit link above, or email
[hidden email] with subject "unsubscribe".
_______________________________________________
ffmpeg-user mailing list
[hidden email]
http://ffmpeg.org/mailman/listinfo/ffmpeg-user

To unsubscribe, visit link above, or email
[hidden email] with subject "unsubscribe".
Reply | Threaded
Open this post in threaded view
|

Re: Copy Audio

Gyan

On 19-12-2018 09:51 AM, Chris wrote:

> The original audio is:
>
> ID                                       : 2
> Format                                   : PCM
> Format settings                          : Big / Signed
> Codec ID                                 : twos
> Duration                                 : 1 min 42 s
> Bit rate mode                            : Constant
> Bit rate                                 : 1 536 kb/s
> Channel(s)                               : 2 channels
> Sampling rate                            : 48.0 kHz
> Bit depth                                : 16 bits
>
>>> This is writing invalid files. mp4 does not allow pcm_s16be.
> That is the audio ffmpeg is being told to copy. In v 4.0 it successfully copies the audio which can then be played back.
>
> In v 4.1 it does not copy the audio but rather throws errors.
Changed by commit 4cfb01d6ae5 : lavf/movenc: Fail when codec tag is
invalid for format

FWIW, PCM audio isn't allowed in MP4, only MOV, see
http://mp4ra.org/#/codecs
It was a regression in ffmpeg 3.4 - 40 that allowed this.

Gyan
_______________________________________________
ffmpeg-user mailing list
[hidden email]
http://ffmpeg.org/mailman/listinfo/ffmpeg-user

To unsubscribe, visit link above, or email
[hidden email] with subject "unsubscribe".
Reply | Threaded
Open this post in threaded view
|

Re: Copy Audio

Chris-2

FWIW, PCM audio isn't allowed in MP4, only MOV,

FWIW both my Sony and Canon camcorders put out PCM audio in .mp4 containers. ffmpeg is merely being asked to copy the existing audio.

-----Original Message-----
From: Gyan <[hidden email]>
To: ffmpeg-user <[hidden email]>
Sent: Tue, Dec 18, 2018 9:37 pm
Subject: Re: [FFmpeg-user] Copy Audio



On 19-12-2018 09:51 AM, Chris wrote:

> The original audio is:
>
> ID                                       : 2
> Format                                   : PCM
> Format settings                          : Big / Signed
> Codec ID                                 : twos
> Duration                                 : 1 min 42 s
> Bit rate mode                            : Constant
> Bit rate                                 : 1 536 kb/s
> Channel(s)                               : 2 channels
> Sampling rate                            : 48.0 kHz
> Bit depth                                : 16 bits
>
>>> This is writing invalid files. mp4 does not allow pcm_s16be.
> That is the audio ffmpeg is being told to copy. In v 4.0 it successfully copies the audio which can then be played back.
>
> In v 4.1 it does not copy the audio but rather throws errors.
Changed by commit 4cfb01d6ae5 : lavf/movenc: Fail when codec tag is
invalid for format

FWIW, PCM audio isn't allowed in MP4, only MOV, see
http://mp4ra.org/#/codecs
It was a regression in ffmpeg 3.4 - 40 that allowed this.

Gyan

_______________________________________________
ffmpeg-user mailing list
[hidden email]
http://ffmpeg.org/mailman/listinfo/ffmpeg-user

To unsubscribe, visit link above, or email
[hidden email] with subject "unsubscribe".
_______________________________________________
ffmpeg-user mailing list
[hidden email]
http://ffmpeg.org/mailman/listinfo/ffmpeg-user

To unsubscribe, visit link above, or email
[hidden email] with subject "unsubscribe".
Reply | Threaded
Open this post in threaded view
|

Re: Copy Audio

Moritz Barsnick
On Wed, Dec 19, 2018 at 07:22:52 +0000, Chris wrote:
> FWIW both my Sony and Canon camcorders put out PCM audio in .mp4
> containers. ffmpeg is merely being asked to copy the existing audio.

Without myself trying to take sides on this, one could argue:

  ffmpeg chooses not to create "illegal" files[1]. It is friendly enough
  to demux/decode those created by others though, allowing you to carry
  the data over.

Why do you need to create the same/similar format that Sony and Canon
do? Do you want the resulting MP4 to be read by a particular software?
Why does the audio need to be copied losslessly? Why are the MOV or
Matroska containers not alternatives?

Moritz

[1] Agreed it can in some other cases.
_______________________________________________
ffmpeg-user mailing list
[hidden email]
http://ffmpeg.org/mailman/listinfo/ffmpeg-user

To unsubscribe, visit link above, or email
[hidden email] with subject "unsubscribe".
Reply | Threaded
Open this post in threaded view
|

Re: Copy Audio

Chris-2
In reply to this post by Gyan
This was posted by someone else in another discussion elsewhere.

REPEAT: It was posted by someone else, so don't argue with me about it.

===================================================

Hi Guys,
I have to correct some assumptions here: There IS an AudioObjectType and StreamType for PCM.
streamType (audio) and aot=0! The problem is, that the audio specific config for aot 0 is not completely defined. What you can define is aot, no. of Channels, sampling Freq.

The problem is, that there is no way to define the type of pcm audio you are using. e.g.:
16bit / 24bit / float, etc. but i am still investigating and will post if I found someth.

Greetings,

iss

raw pcm must be in 16 bit signed integer format in the range from -32768 to 32767

Greetings,

iss

https://hydrogenaud.io/index.php/topic,20676.0.html 
_______________________________________________
ffmpeg-user mailing list
[hidden email]
http://ffmpeg.org/mailman/listinfo/ffmpeg-user

To unsubscribe, visit link above, or email
[hidden email] with subject "unsubscribe".
Reply | Threaded
Open this post in threaded view
|

Re: Copy Audio

Carl Eugen Hoyos-2
2018-12-19 11:45 GMT+01:00, Chris <[hidden email]>:

> I have to correct some assumptions here: There IS an
> AudioObjectType and StreamType for PCM.
> streamType (audio) and aot=0!

> The problem is, that the audio specific config for aot 0 is not
> completely defined.

Sounds like a real problem, don't you agree?

Anyway, pcm is defined for some types of isom files but
those are not (yet) supported by FFmpeg, don't hold
your breath.

Carl Eugen
_______________________________________________
ffmpeg-user mailing list
[hidden email]
http://ffmpeg.org/mailman/listinfo/ffmpeg-user

To unsubscribe, visit link above, or email
[hidden email] with subject "unsubscribe".
Reply | Threaded
Open this post in threaded view
|

Re: Copy Audio

Chris-2
In reply to this post by Chris-2
Merely copying a PCM audio track used to work through v 4.0.

Just make "copy" like it used to be.

"Anyway, pcm is defined for some types of isom files but
those are not (yet) supported by FFmpeg, don't hold
your breath."

Carl Eugen


-----Original Message-----
From: Carl Eugen Hoyos <[hidden email]>
To: FFmpeg user questions <[hidden email]>
Sent: Wed, Dec 19, 2018 3:20 pm
Subject: Re: [FFmpeg-user] Copy Audio


2018-12-19 11:45 GMT+01:00, Chris <[hidden email]>:

> I have to correct some assumptions here: There IS an
> AudioObjectType and StreamType for PCM.
> streamType (audio) and aot=0!

> The problem is, that the audio specific config for aot 0 is not
> completely defined.

Sounds like a real problem, don't you agree?

Anyway, pcm is defined for some types of isom files but
those are not (yet) supported by FFmpeg, don't hold
your breath.

Carl Eugen

_______________________________________________
ffmpeg-user mailing list
[hidden email]
http://ffmpeg.org/mailman/listinfo/ffmpeg-user

To unsubscribe, visit link above, or email
[hidden email] with subject "unsubscribe".
_______________________________________________
ffmpeg-user mailing list
[hidden email]
http://ffmpeg.org/mailman/listinfo/ffmpeg-user

To unsubscribe, visit link above, or email
[hidden email] with subject "unsubscribe".
12