Compressing animation - result has washed out colors

classic Classic list List threaded Threaded
14 messages Options
Reply | Threaded
Open this post in threaded view
|

Compressing animation - result has washed out colors

Ron Barnes
Hello All,

I am not able to attach any before and after frames as the frames captured are too large to be attached.

I have attached a screen copy of the output log from FFMPEG.

The issue I'm having (and I have gotten help already, thanks to all) is the colors are faded and washed out.  I have been trolling the documentation site and trying differing command options but nothing seems to work.

Here is my line command...


ffmpeg -i "Wreck_It_Ralph_Full_Bluray.mkv" -c:v libx265 -analyzeduration 10M -probesize 10M -preset medium -map 0 -c:s copy -c:a:0 libmp3lame -b:a:0 128k -reserve_index_space 1000k -crf 20 -s 3840x2160 -color_primaries bt2020 -color_trc smpte2084 -colorspace bt2020nc -color_range tv -ac 2 -c:a aac -b:a 128k -metadata title="Wreck-it Ralph" Wreck-It_Ralph.mkv


Thanks to all,

-Ron

_______________________________________________
ffmpeg-user mailing list
[hidden email]
http://ffmpeg.org/mailman/listinfo/ffmpeg-user

To unsubscribe, visit link above, or email
[hidden email] with subject "unsubscribe".

FFMPEG_Log.txt (52K) Download Attachment
Reply | Threaded
Open this post in threaded view
|

Re: Compressing animation - result has washed out colors

Carl Eugen Hoyos-2
2018-11-22 12:50 GMT+01:00, Ron Barnes <[hidden email]>:

> The issue I'm having (and I have gotten help already, thanks to all) is the
> colors are faded and washed out.  I have been trolling the documentation
> site and trying differing command options but nothing seems to work.
>
> Here is my line command...
>
>
> ffmpeg -i "Wreck_It_Ralph_Full_Bluray.mkv" -c:v libx265 -analyzeduration 10M
> -probesize 10M -preset medium -map 0 -c:s copy -c:a:0 libmp3lame -b:a:0 128k
> -reserve_index_space 1000k -crf 20 -s 3840x2160 -color_primaries bt2020
> -color_trc smpte2084 -colorspace bt2020nc -color_range tv -ac 2 -c:a aac
> -b:a 128k -metadata title="Wreck-it Ralph" Wreck-It_Ralph.mkv

Please provide "ffmpeg -i" console output for the output file.

Carl Eugen
_______________________________________________
ffmpeg-user mailing list
[hidden email]
http://ffmpeg.org/mailman/listinfo/ffmpeg-user

To unsubscribe, visit link above, or email
[hidden email] with subject "unsubscribe".
Reply | Threaded
Open this post in threaded view
|

Re: Compressing animation - result has washed out colors

Ron Barnes
Hi,

Here is the full output from ffmpeg -i


Microsoft Windows [Version 10.0.17134.407]
(c) 2018 Microsoft Corporation. All rights reserved.

G:\Wreck_It_Ralph_Full_Bluray>ffmpeg -i Wreck_It_Ralph_Full_Bluray.mkv
ffmpeg version N-92435-g759589b55e Copyright (c) 2000-2018 the FFmpeg developers
  built with gcc 8.2.1 (GCC) 20181017
  configuration: --enable-gpl --enable-version3 --enable-sdl2 --enable-fontconfig --enable-gnutls --enable-iconv --enable-libass --enable-libbluray --enable-libfreetype --enable-libmp3lame --enable-libopencore-amrnb --enable-libopencore-amrwb --enable-libopenjpeg --enable-libopus --enable-libshine --enable-libsnappy --enable-libsoxr --enable-libtheora --enable-libtwolame --enable-libvpx --enable-libwavpack --enable-libwebp --enable-libx264 --enable-libx265 --enable-libxml2 --enable-libzimg --enable-lzma --enable-zlib --enable-gmp --enable-libvidstab --enable-libvorbis --enable-libvo-amrwbenc --enable-libmysofa --enable-libspeex --enable-libxvid --enable-libaom --enable-libmfx --enable-amf --enable-ffnvcodec --enable-cuvid --enable-d3d11va --enable-nvenc --enable-nvdec --enable-dxva2 --enable-avisynth
  libavutil      56. 23.101 / 56. 23.101
  libavcodec     58. 39.100 / 58. 39.100
  libavformat    58. 22.100 / 58. 22.100
  libavdevice    58.  6.100 / 58.  6.100
  libavfilter     7. 43.100 /  7. 43.100
  libswscale      5.  4.100 /  5.  4.100
  libswresample   3.  4.100 /  3.  4.100
  libpostproc    55.  4.100 / 55.  4.100
[matroska,webm @ 000001cc2600a4c0] Stream #23: not enough frames to estimate rate; consider increasing probesize
[matroska,webm @ 000001cc2600a4c0] Stream #24: not enough frames to estimate rate; consider increasing probesize
[matroska,webm @ 000001cc2600a4c0] Stream #25: not enough frames to estimate rate; consider increasing probesize
[matroska,webm @ 000001cc2600a4c0] Stream #26: not enough frames to estimate rate; consider increasing probesize
[matroska,webm @ 000001cc2600a4c0] Stream #27: not enough frames to estimate rate; consider increasing probesize
[matroska,webm @ 000001cc2600a4c0] Stream #28: not enough frames to estimate rate; consider increasing probesize
[matroska,webm @ 000001cc2600a4c0] Stream #29: not enough frames to estimate rate; consider increasing probesize
[matroska,webm @ 000001cc2600a4c0] Stream #30: not enough frames to estimate rate; consider increasing probesize
[matroska,webm @ 000001cc2600a4c0] Could not find codec parameters for stream 10 (Subtitle: hdmv_pgs_subtitle (pgssub)): unspecified size
Consider increasing the value for the 'analyzeduration' and 'probesize' options
[matroska,webm @ 000001cc2600a4c0] Could not find codec parameters for stream 11 (Subtitle: hdmv_pgs_subtitle (pgssub)): unspecified size
Consider increasing the value for the 'analyzeduration' and 'probesize' options
[matroska,webm @ 000001cc2600a4c0] Could not find codec parameters for stream 12 (Subtitle: hdmv_pgs_subtitle (pgssub)): unspecified size
Consider increasing the value for the 'analyzeduration' and 'probesize' options
[matroska,webm @ 000001cc2600a4c0] Could not find codec parameters for stream 13 (Subtitle: hdmv_pgs_subtitle (pgssub)): unspecified size
Consider increasing the value for the 'analyzeduration' and 'probesize' options
[matroska,webm @ 000001cc2600a4c0] Could not find codec parameters for stream 14 (Subtitle: hdmv_pgs_subtitle (pgssub)): unspecified size
Consider increasing the value for the 'analyzeduration' and 'probesize' options
[matroska,webm @ 000001cc2600a4c0] Could not find codec parameters for stream 15 (Subtitle: hdmv_pgs_subtitle (pgssub)): unspecified size
Consider increasing the value for the 'analyzeduration' and 'probesize' options
[matroska,webm @ 000001cc2600a4c0] Could not find codec parameters for stream 16 (Subtitle: hdmv_pgs_subtitle (pgssub)): unspecified size
Consider increasing the value for the 'analyzeduration' and 'probesize' options
[matroska,webm @ 000001cc2600a4c0] Could not find codec parameters for stream 17 (Subtitle: hdmv_pgs_subtitle (pgssub)): unspecified size
Consider increasing the value for the 'analyzeduration' and 'probesize' options
[matroska,webm @ 000001cc2600a4c0] Could not find codec parameters for stream 18 (Subtitle: hdmv_pgs_subtitle (pgssub)): unspecified size
Consider increasing the value for the 'analyzeduration' and 'probesize' options
[matroska,webm @ 000001cc2600a4c0] Could not find codec parameters for stream 19 (Subtitle: hdmv_pgs_subtitle (pgssub)): unspecified size
Consider increasing the value for the 'analyzeduration' and 'probesize' options
[matroska,webm @ 000001cc2600a4c0] Could not find codec parameters for stream 21 (Subtitle: hdmv_pgs_subtitle (pgssub)): unspecified size
Consider increasing the value for the 'analyzeduration' and 'probesize' options
[matroska,webm @ 000001cc2600a4c0] Could not find codec parameters for stream 22 (Subtitle: hdmv_pgs_subtitle (pgssub)): unspecified size
Consider increasing the value for the 'analyzeduration' and 'probesize' options
Guessed Channel Layout for Input Stream #0.7 : 7.1
Input #0, matroska,webm, from 'Wreck_It_Ralph_Full_Bluray.mkv':
  Metadata:
    title           : Wreck_It_Ralph_Full_Bluray
    encoder         : libebml v1.3.6 + libmatroska v1.4.9
    creation_time   : 2018-11-07T20:19:17.000000Z
  Duration: 01:41:15.16, start: 0.001000, bitrate: 59182 kb/s
    Chapter #0:0: start 0.000000, end 432.974156
    Metadata:
      title           : Chapter 1
    Chapter #0:1: start 432.974156, end 995.744667
    Metadata:
      title           : Chapter 2
    Chapter #0:2: start 995.744667, end 1628.334911
    Metadata:
      title           : Chapter 3
    Chapter #0:3: start 1628.334911, end 2246.786044
    Metadata:
      title           : Chapter 4
    Chapter #0:4: start 2246.786044, end 2687.518000
    Metadata:
      title           : Chapter 5
    Chapter #0:5: start 2687.518000, end 2925.964511
    Metadata:
      title           : Chapter 6
    Chapter #0:6: start 2925.964511, end 3096.843533
    Metadata:
      title           : Chapter 7
    Chapter #0:7: start 3096.843533, end 3536.866400
    Metadata:
      title           : Chapter 8
    Chapter #0:8: start 3536.866400, end 4148.727578
    Metadata:
      title           : Chapter 9
    Chapter #0:9: start 4148.727578, end 4420.457289
    Metadata:
      title           : Chapter 10
    Chapter #0:10: start 4420.457289, end 4557.636000
    Metadata:
      title           : Chapter 11
    Chapter #0:11: start 4557.636000, end 4733.811933
    Metadata:
      title           : Chapter 12
    Chapter #0:12: start 4733.811933, end 4914.575844
    Metadata:
      title           : Chapter 13
    Chapter #0:13: start 4914.575844, end 5246.198778
    Metadata:
      title           : Chapter 14
    Chapter #0:14: start 5246.198778, end 5591.376911
    Metadata:
      title           : Chapter 15
    Chapter #0:15: start 5591.376911, end 6075.157000
    Metadata:
      title           : Chapter 16
    Stream #0:0: Video: hevc (Main 10), yuv420p10le(tv, bt2020nc/bt2020/smpte2084), 3840x2160 [SAR 1:1 DAR 16:9], 23.98 fps, 23.98 tbr, 1k tbn, 23.98 tbc (default)
    Metadata:
      title           : Wreck_It_Ralph_Full_Bluray
      BPS-eng         : 49221090
      DURATION-eng    : 01:41:15.133000000
      NUMBER_OF_FRAMES-eng: 145615
      NUMBER_OF_BYTES-eng: 37378084084
      _STATISTICS_WRITING_APP-eng: mkvmerge v28.2.0 ('The Awakening') 64-bit
      _STATISTICS_WRITING_DATE_UTC-eng: 2018-11-07 20:19:17
      _STATISTICS_TAGS-eng: BPS DURATION NUMBER_OF_FRAMES NUMBER_OF_BYTES
    Stream #0:1(eng): Audio: truehd, 48000 Hz, 7.1, s32 (24 bit) (default)
    Metadata:
      title           : Wreck_It_Ralph_Full_Bluray
      BPS-eng         : 4596983
      DURATION-eng    : 01:41:15.101000000
      NUMBER_OF_FRAMES-eng: 7289163
      NUMBER_OF_BYTES-eng: 3490892502
      _STATISTICS_WRITING_APP-eng: mkvmerge v28.2.0 ('The Awakening') 64-bit
      _STATISTICS_WRITING_DATE_UTC-eng: 2018-11-07 20:19:17
      _STATISTICS_TAGS-eng: BPS DURATION NUMBER_OF_FRAMES NUMBER_OF_BYTES
    Stream #0:2(eng): Audio: ac3, 48000 Hz, 5.1(side), fltp, 640 kb/s
    Metadata:
      title           : Wreck_It_Ralph_Full_Bluray
      BPS-eng         : 639997
      DURATION-eng    : 01:41:15.125000000
      NUMBER_OF_FRAMES-eng: 189847
      NUMBER_OF_BYTES-eng: 486008320
      _STATISTICS_WRITING_APP-eng: mkvmerge v28.2.0 ('The Awakening') 64-bit
      _STATISTICS_WRITING_DATE_UTC-eng: 2018-11-07 20:19:17
      _STATISTICS_TAGS-eng: BPS DURATION NUMBER_OF_FRAMES NUMBER_OF_BYTES
    Stream #0:3(eng): Audio: ac3, 48000 Hz, 5.1(side), fltp, 640 kb/s
    Metadata:
      title           : Wreck_It_Ralph_Full_Bluray
      BPS-eng         : 639997
      DURATION-eng    : 01:41:15.124000000
      NUMBER_OF_FRAMES-eng: 189847
      NUMBER_OF_BYTES-eng: 486008320
      _STATISTICS_WRITING_APP-eng: mkvmerge v28.2.0 ('The Awakening') 64-bit
      _STATISTICS_WRITING_DATE_UTC-eng: 2018-11-07 20:19:17
      _STATISTICS_TAGS-eng: BPS DURATION NUMBER_OF_FRAMES NUMBER_OF_BYTES
    Stream #0:4(eng): Audio: ac3, 48000 Hz, stereo, fltp, 320 kb/s
    Metadata:
      title           : Wreck_It_Ralph_Full_Bluray
      BPS-eng         : 319998
      DURATION-eng    : 01:41:15.124000000
      NUMBER_OF_FRAMES-eng: 189847
      NUMBER_OF_BYTES-eng: 243004160
      _STATISTICS_WRITING_APP-eng: mkvmerge v28.2.0 ('The Awakening') 64-bit
      _STATISTICS_WRITING_DATE_UTC-eng: 2018-11-07 20:19:17
      _STATISTICS_TAGS-eng: BPS DURATION NUMBER_OF_FRAMES NUMBER_OF_BYTES
    Stream #0:5(fre): Audio: ac3, 48000 Hz, 5.1(side), fltp, 640 kb/s
    Metadata:
      title           : Wreck_It_Ralph_Full_Bluray
      BPS-eng         : 639997
      DURATION-eng    : 01:41:15.124000000
      NUMBER_OF_FRAMES-eng: 189847
      NUMBER_OF_BYTES-eng: 486008320
      _STATISTICS_WRITING_APP-eng: mkvmerge v28.2.0 ('The Awakening') 64-bit
      _STATISTICS_WRITING_DATE_UTC-eng: 2018-11-07 20:19:17
      _STATISTICS_TAGS-eng: BPS DURATION NUMBER_OF_FRAMES NUMBER_OF_BYTES
    Stream #0:6(spa): Audio: ac3, 48000 Hz, 5.1(side), fltp, 640 kb/s
    Metadata:
      title           : Wreck_It_Ralph_Full_Bluray
      BPS-eng         : 639997
      DURATION-eng    : 01:41:15.124000000
      NUMBER_OF_FRAMES-eng: 189847
      NUMBER_OF_BYTES-eng: 486008320
      _STATISTICS_WRITING_APP-eng: mkvmerge v28.2.0 ('The Awakening') 64-bit
      _STATISTICS_WRITING_DATE_UTC-eng: 2018-11-07 20:19:17
      _STATISTICS_TAGS-eng: BPS DURATION NUMBER_OF_FRAMES NUMBER_OF_BYTES
    Stream #0:7(jpn): Audio: eac3, 48000 Hz, 7.1, fltp
    Metadata:
      title           : Wreck_It_Ralph_Full_Bluray
      BPS-eng         : 1023996
      DURATION-eng    : 01:41:15.124000000
      NUMBER_OF_FRAMES-eng: 189847
      NUMBER_OF_BYTES-eng: 777613312
      _STATISTICS_WRITING_APP-eng: mkvmerge v28.2.0 ('The Awakening') 64-bit
      _STATISTICS_WRITING_DATE_UTC-eng: 2018-11-07 20:19:17
      _STATISTICS_TAGS-eng: BPS DURATION NUMBER_OF_FRAMES NUMBER_OF_BYTES
    Stream #0:8(kor): Audio: ac3, 48000 Hz, 5.1(side), fltp, 640 kb/s
    Metadata:
      title           : Wreck_It_Ralph_Full_Bluray
      BPS-eng         : 639997
      DURATION-eng    : 01:41:15.124000000
      NUMBER_OF_FRAMES-eng: 189847
      NUMBER_OF_BYTES-eng: 486008320
      _STATISTICS_WRITING_APP-eng: mkvmerge v28.2.0 ('The Awakening') 64-bit
      _STATISTICS_WRITING_DATE_UTC-eng: 2018-11-07 20:19:17
      _STATISTICS_TAGS-eng: BPS DURATION NUMBER_OF_FRAMES NUMBER_OF_BYTES
    Stream #0:9(chi): Audio: ac3, 48000 Hz, 5.1(side), fltp, 640 kb/s
    Metadata:
      title           : Wreck_It_Ralph_Full_Bluray
      BPS-eng         : 639997
      DURATION-eng    : 01:41:15.124000000
      NUMBER_OF_FRAMES-eng: 189847
      NUMBER_OF_BYTES-eng: 486008320
      _STATISTICS_WRITING_APP-eng: mkvmerge v28.2.0 ('The Awakening') 64-bit
      _STATISTICS_WRITING_DATE_UTC-eng: 2018-11-07 20:19:17
      _STATISTICS_TAGS-eng: BPS DURATION NUMBER_OF_FRAMES NUMBER_OF_BYTES
    Stream #0:10(eng): Subtitle: hdmv_pgs_subtitle (default)
    Metadata:
      title           : English-PGS
      BPS-eng         : 47478
      DURATION-eng    : 01:40:15.573000000
      NUMBER_OF_FRAMES-eng: 3748
      NUMBER_OF_BYTES-eng: 35701221
      _STATISTICS_WRITING_APP-eng: mkvmerge v28.2.0 ('The Awakening') 64-bit
      _STATISTICS_WRITING_DATE_UTC-eng: 2018-11-07 20:19:17
      _STATISTICS_TAGS-eng: BPS DURATION NUMBER_OF_FRAMES NUMBER_OF_BYTES
    Stream #0:11(eng): Subtitle: hdmv_pgs_subtitle
    Metadata:
      title           : English-SDH-PGS
      BPS-eng         : 41774
      DURATION-eng    : 01:32:14.927000000
      NUMBER_OF_FRAMES-eng: 2989
      NUMBER_OF_BYTES-eng: 28902299
      _STATISTICS_WRITING_APP-eng: mkvmerge v28.2.0 ('The Awakening') 64-bit
      _STATISTICS_WRITING_DATE_UTC-eng: 2018-11-07 20:19:17
      _STATISTICS_TAGS-eng: BPS DURATION NUMBER_OF_FRAMES NUMBER_OF_BYTES
    Stream #0:12(fre): Subtitle: hdmv_pgs_subtitle
    Metadata:
      title           : French-PGS
      BPS-eng         : 42896
      DURATION-eng    : 01:34:14.296000000
      NUMBER_OF_FRAMES-eng: 3107
      NUMBER_OF_BYTES-eng: 30318490
      _STATISTICS_WRITING_APP-eng: mkvmerge v28.2.0 ('The Awakening') 64-bit
      _STATISTICS_WRITING_DATE_UTC-eng: 2018-11-07 20:19:17
      _STATISTICS_TAGS-eng: BPS DURATION NUMBER_OF_FRAMES NUMBER_OF_BYTES
    Stream #0:13(spa): Subtitle: hdmv_pgs_subtitle
    Metadata:
      title           : Spanish-PGS
      BPS-eng         : 39213
      DURATION-eng    : 01:34:14.337000000
      NUMBER_OF_FRAMES-eng: 2657
      NUMBER_OF_BYTES-eng: 27715685
      _STATISTICS_WRITING_APP-eng: mkvmerge v28.2.0 ('The Awakening') 64-bit
      _STATISTICS_WRITING_DATE_UTC-eng: 2018-11-07 20:19:17
      _STATISTICS_TAGS-eng: BPS DURATION NUMBER_OF_FRAMES NUMBER_OF_BYTES
    Stream #0:14(jpn): Subtitle: hdmv_pgs_subtitle
    Metadata:
      title           : Japanese-PGS
      BPS-eng         : 33302
      DURATION-eng    : 01:32:14.968000000
      NUMBER_OF_FRAMES-eng: 2757
      NUMBER_OF_BYTES-eng: 23041327
      _STATISTICS_WRITING_APP-eng: mkvmerge v28.2.0 ('The Awakening') 64-bit
      _STATISTICS_WRITING_DATE_UTC-eng: 2018-11-07 20:19:17
      _STATISTICS_TAGS-eng: BPS DURATION NUMBER_OF_FRAMES NUMBER_OF_BYTES
    Stream #0:15(kor): Subtitle: hdmv_pgs_subtitle
    Metadata:
      title           : Korean-PGS
      BPS-eng         : 22022
      DURATION-eng    : 01:34:14.337000000
      NUMBER_OF_FRAMES-eng: 2716
      NUMBER_OF_BYTES-eng: 15565337
      _STATISTICS_WRITING_APP-eng: mkvmerge v28.2.0 ('The Awakening') 64-bit
      _STATISTICS_WRITING_DATE_UTC-eng: 2018-11-07 20:19:17
      _STATISTICS_TAGS-eng: BPS DURATION NUMBER_OF_FRAMES NUMBER_OF_BYTES
    Stream #0:16(chi): Subtitle: hdmv_pgs_subtitle
    Metadata:
      title           : Chinese-PGS
      BPS-eng         : 28745
      DURATION-eng    : 01:32:19.764000000
      NUMBER_OF_FRAMES-eng: 3212
      NUMBER_OF_BYTES-eng: 19905506
      _STATISTICS_WRITING_APP-eng: mkvmerge v28.2.0 ('The Awakening') 64-bit
      _STATISTICS_WRITING_DATE_UTC-eng: 2018-11-07 20:19:17
      _STATISTICS_TAGS-eng: BPS DURATION NUMBER_OF_FRAMES NUMBER_OF_BYTES
    Stream #0:17(chi): Subtitle: hdmv_pgs_subtitle
    Metadata:
      title           : Chinese-PGS
      BPS-eng         : 33112
      DURATION-eng    : 01:32:30.442000000
      NUMBER_OF_FRAMES-eng: 3799
      NUMBER_OF_BYTES-eng: 22973352
      _STATISTICS_WRITING_APP-eng: mkvmerge v28.2.0 ('The Awakening') 64-bit
      _STATISTICS_WRITING_DATE_UTC-eng: 2018-11-07 20:19:17
      _STATISTICS_TAGS-eng: BPS DURATION NUMBER_OF_FRAMES NUMBER_OF_BYTES
    Stream #0:18(fre): Subtitle: hdmv_pgs_subtitle
    Metadata:
      title           : French-PGS
      BPS-eng         : 1021
      DURATION-eng    : 01:34:14.296000000
      NUMBER_OF_FRAMES-eng: 120
      NUMBER_OF_BYTES-eng: 722098
      _STATISTICS_WRITING_APP-eng: mkvmerge v28.2.0 ('The Awakening') 64-bit
      _STATISTICS_WRITING_DATE_UTC-eng: 2018-11-07 20:19:17
      _STATISTICS_TAGS-eng: BPS DURATION NUMBER_OF_FRAMES NUMBER_OF_BYTES
    Stream #0:19(spa): Subtitle: hdmv_pgs_subtitle
    Metadata:
      title           : Spanish-PGS
      BPS-eng         : 765
      DURATION-eng    : 01:34:14.337000000
      NUMBER_OF_FRAMES-eng: 100
      NUMBER_OF_BYTES-eng: 540774
      _STATISTICS_WRITING_APP-eng: mkvmerge v28.2.0 ('The Awakening') 64-bit
      _STATISTICS_WRITING_DATE_UTC-eng: 2018-11-07 20:19:17
      _STATISTICS_TAGS-eng: BPS DURATION NUMBER_OF_FRAMES NUMBER_OF_BYTES
    Stream #0:20(jpn): Subtitle: hdmv_pgs_subtitle, 1920x1080
    Metadata:
      title           : Japanese-PGS
      BPS-eng         : 137
      DURATION-eng    : 01:40:06.773000000
      NUMBER_OF_FRAMES-eng: 54
      NUMBER_OF_BYTES-eng: 103516
      _STATISTICS_WRITING_APP-eng: mkvmerge v28.2.0 ('The Awakening') 64-bit
      _STATISTICS_WRITING_DATE_UTC-eng: 2018-11-07 20:19:17
      _STATISTICS_TAGS-eng: BPS DURATION NUMBER_OF_FRAMES NUMBER_OF_BYTES
    Stream #0:21(kor): Subtitle: hdmv_pgs_subtitle
    Metadata:
      title           : Korean-PGS
      BPS-eng         : 728
      DURATION-eng    : 01:34:14.337000000
      NUMBER_OF_FRAMES-eng: 150
      NUMBER_OF_BYTES-eng: 514778
      _STATISTICS_WRITING_APP-eng: mkvmerge v28.2.0 ('The Awakening') 64-bit
      _STATISTICS_WRITING_DATE_UTC-eng: 2018-11-07 20:19:17
      _STATISTICS_TAGS-eng: BPS DURATION NUMBER_OF_FRAMES NUMBER_OF_BYTES
    Stream #0:22(chi): Subtitle: hdmv_pgs_subtitle
    Metadata:
      title           : Chinese-PGS
      BPS-eng         : 1080
      DURATION-eng    : 01:32:28.481000000
      NUMBER_OF_FRAMES-eng: 145
      NUMBER_OF_BYTES-eng: 749664
      _STATISTICS_WRITING_APP-eng: mkvmerge v28.2.0 ('The Awakening') 64-bit
      _STATISTICS_WRITING_DATE_UTC-eng: 2018-11-07 20:19:17
      _STATISTICS_TAGS-eng: BPS DURATION NUMBER_OF_FRAMES NUMBER_OF_BYTES
    Stream #0:23: Video: mjpeg (Baseline), yuvj444p(pc, bt470bg/unknown/unknown), 1067x600, 90k tbr, 90k tbn, 90k tbc
    Metadata:
      filename        : cover_land.jpg
      mimetype        : image/jpeg
    Stream #0:24: Video: mjpeg (Baseline), yuvj444p(pc, bt470bg/unknown/unknown), 120x176, 90k tbr, 90k tbn, 90k tbc
    Metadata:
      filename        : small_cover.jpg
      mimetype        : image/jpeg
    Stream #0:25: Video: mjpeg (Baseline), yuvj444p(pc, bt470bg/unknown/unknown), 213x120, 90k tbr, 90k tbn, 90k tbc
    Metadata:
      filename        : small_cover_land.jpg
      mimetype        : image/jpeg
    Stream #0:26: Video: mjpeg (Baseline), yuvj444p(pc, bt470bg/unknown/unknown), 600x882, 90k tbr, 90k tbn, 90k tbc
    Metadata:
      filename        : cover.jpg
      mimetype        : image/jpeg
    Stream #0:27: Video: mjpeg (Baseline), yuvj444p(pc, bt470bg/unknown/unknown), 1067x600, 90k tbr, 90k tbn, 90k tbc
    Metadata:
      filename        : cover_land.jpg
      mimetype        : image/jpeg
    Stream #0:28: Video: mjpeg (Baseline), yuvj444p(pc, bt470bg/unknown/unknown), 120x176, 90k tbr, 90k tbn, 90k tbc
    Metadata:
      filename        : small_cover.jpg
      mimetype        : image/jpeg
    Stream #0:29: Video: mjpeg (Baseline), yuvj444p(pc, bt470bg/unknown/unknown), 213x120, 90k tbr, 90k tbn, 90k tbc
    Metadata:
      filename        : small_cover_land.jpg
      mimetype        : image/jpeg
    Stream #0:30: Video: mjpeg (Baseline), yuvj444p(pc, bt470bg/unknown/unknown), 600x882, 90k tbr, 90k tbn, 90k tbc
    Metadata:
      filename        : cover.jpg
      mimetype        : image/jpeg
At least one output file must be specified

G:\Wreck_It_Ralph_Full_Bluray>













-----Original Message-----
From: ffmpeg-user <[hidden email]> On Behalf Of Carl Eugen Hoyos
Sent: Thursday, November 22, 2018 7:49 AM
To: FFmpeg user questions <[hidden email]>
Subject: Re: [FFmpeg-user] Compressing animation - result has washed out colors

2018-11-22 12:50 GMT+01:00, Ron Barnes <[hidden email]>:

> The issue I'm having (and I have gotten help already, thanks to all)
> is the colors are faded and washed out.  I have been trolling the
> documentation site and trying differing command options but nothing seems to work.
>
> Here is my line command...
>
>
> ffmpeg -i "Wreck_It_Ralph_Full_Bluray.mkv" -c:v libx265
> -analyzeduration 10M -probesize 10M -preset medium -map 0 -c:s copy
> -c:a:0 libmp3lame -b:a:0 128k -reserve_index_space 1000k -crf 20 -s
> 3840x2160 -color_primaries bt2020 -color_trc smpte2084 -colorspace
> bt2020nc -color_range tv -ac 2 -c:a aac -b:a 128k -metadata
> title="Wreck-it Ralph" Wreck-It_Ralph.mkv

Please provide "ffmpeg -i" console output for the output file.

Carl Eugen
_______________________________________________
ffmpeg-user mailing list
[hidden email]
http://ffmpeg.org/mailman/listinfo/ffmpeg-user

To unsubscribe, visit link above, or email [hidden email] with subject "unsubscribe".

_______________________________________________
ffmpeg-user mailing list
[hidden email]
http://ffmpeg.org/mailman/listinfo/ffmpeg-user

To unsubscribe, visit link above, or email
[hidden email] with subject "unsubscribe".
Reply | Threaded
Open this post in threaded view
|

Re: Compressing animation - result has washed out colors

Ron Barnes
In reply to this post by Carl Eugen Hoyos-2
Sorry - my last email was the input file and you asked for the output file.  This is the output file ffmpeg -i


F:\Wreck-It_Ralph>ffmpeg -i Wreck-it_Ralph.mkv
ffmpeg version N-92435-g759589b55e Copyright (c) 2000-2018 the FFmpeg developers
  built with gcc 8.2.1 (GCC) 20181017
  configuration: --enable-gpl --enable-version3 --enable-sdl2 --enable-fontconfig --enable-gnutls --enable-iconv --enable-libass --enable-libbluray --enable-libfreetype --enable-libmp3lame --enable-libopencore-amrnb --enable-libopencore-amrwb --enable-libopenjpeg --enable-libopus --enable-libshine --enable-libsnappy --enable-libsoxr --enable-libtheora --enable-libtwolame --enable-libvpx --enable-libwavpack --enable-libwebp --enable-libx264 --enable-libx265 --enable-libxml2 --enable-libzimg --enable-lzma --enable-zlib --enable-gmp --enable-libvidstab --enable-libvorbis --enable-libvo-amrwbenc --enable-libmysofa --enable-libspeex --enable-libxvid --enable-libaom --enable-libmfx --enable-amf --enable-ffnvcodec --enable-cuvid --enable-d3d11va --enable-nvenc --enable-nvdec --enable-dxva2 --enable-avisynth
  libavutil      56. 23.101 / 56. 23.101
  libavcodec     58. 39.100 / 58. 39.100
  libavformat    58. 22.100 / 58. 22.100
  libavdevice    58.  6.100 / 58.  6.100
  libavfilter     7. 43.100 /  7. 43.100
  libswscale      5.  4.100 /  5.  4.100
  libswresample   3.  4.100 /  3.  4.100
  libpostproc    55.  4.100 / 55.  4.100
[matroska,webm @ 000001dc5753a540] Could not find codec parameters for stream 10 (Subtitle: hdmv_pgs_subtitle (pgssub)): unspecified size
Consider increasing the value for the 'analyzeduration' and 'probesize' options
[matroska,webm @ 000001dc5753a540] Could not find codec parameters for stream 11 (Subtitle: hdmv_pgs_subtitle (pgssub)): unspecified size
Consider increasing the value for the 'analyzeduration' and 'probesize' options
[matroska,webm @ 000001dc5753a540] Could not find codec parameters for stream 12 (Subtitle: hdmv_pgs_subtitle (pgssub)): unspecified size
Consider increasing the value for the 'analyzeduration' and 'probesize' options
[matroska,webm @ 000001dc5753a540] Could not find codec parameters for stream 13 (Subtitle: hdmv_pgs_subtitle (pgssub)): unspecified size
Consider increasing the value for the 'analyzeduration' and 'probesize' options
[matroska,webm @ 000001dc5753a540] Could not find codec parameters for stream 14 (Subtitle: hdmv_pgs_subtitle (pgssub)): unspecified size
Consider increasing the value for the 'analyzeduration' and 'probesize' options
[matroska,webm @ 000001dc5753a540] Could not find codec parameters for stream 15 (Subtitle: hdmv_pgs_subtitle (pgssub)): unspecified size
Consider increasing the value for the 'analyzeduration' and 'probesize' options
[matroska,webm @ 000001dc5753a540] Could not find codec parameters for stream 16 (Subtitle: hdmv_pgs_subtitle (pgssub)): unspecified size
Consider increasing the value for the 'analyzeduration' and 'probesize' options
[matroska,webm @ 000001dc5753a540] Could not find codec parameters for stream 17 (Subtitle: hdmv_pgs_subtitle (pgssub)): unspecified size
Consider increasing the value for the 'analyzeduration' and 'probesize' options
[matroska,webm @ 000001dc5753a540] Could not find codec parameters for stream 18 (Subtitle: hdmv_pgs_subtitle (pgssub)): unspecified size
Consider increasing the value for the 'analyzeduration' and 'probesize' options
[matroska,webm @ 000001dc5753a540] Could not find codec parameters for stream 19 (Subtitle: hdmv_pgs_subtitle (pgssub)): unspecified size
Consider increasing the value for the 'analyzeduration' and 'probesize' options
[matroska,webm @ 000001dc5753a540] Could not find codec parameters for stream 21 (Subtitle: hdmv_pgs_subtitle (pgssub)): unspecified size
Consider increasing the value for the 'analyzeduration' and 'probesize' options
[matroska,webm @ 000001dc5753a540] Could not find codec parameters for stream 22 (Subtitle: hdmv_pgs_subtitle (pgssub)): unspecified size
Consider increasing the value for the 'analyzeduration' and 'probesize' options
Input #0, matroska,webm, from 'Wreck-it_Ralph.mkv':
  Metadata:
    title           : Wreck-it Ralph
    ENCODER         : Lavf58.22.100
  Duration: 01:41:15.18, start: 0.000000, bitrate: 4470 kb/s
    Chapter #0:0: start 0.000000, end 432.973156
    Metadata:
      title           : Chapter 1
    Chapter #0:1: start 432.973156, end 995.743667
    Metadata:
      title           : Chapter 2
    Chapter #0:2: start 995.743667, end 1628.333911
    Metadata:
      title           : Chapter 3
    Chapter #0:3: start 1628.333911, end 2246.785044
    Metadata:
      title           : Chapter 4
    Chapter #0:4: start 2246.785044, end 2687.517000
    Metadata:
      title           : Chapter 5
    Chapter #0:5: start 2687.517000, end 2925.963511
    Metadata:
      title           : Chapter 6
    Chapter #0:6: start 2925.963511, end 3096.842533
    Metadata:
      title           : Chapter 7
    Chapter #0:7: start 3096.842533, end 3536.865400
    Metadata:
      title           : Chapter 8
    Chapter #0:8: start 3536.865400, end 4148.726578
    Metadata:
      title           : Chapter 9
    Chapter #0:9: start 4148.726578, end 4420.456289
    Metadata:
      title           : Chapter 10
    Chapter #0:10: start 4420.456289, end 4557.635000
    Metadata:
      title           : Chapter 11
    Chapter #0:11: start 4557.635000, end 4733.810933
    Metadata:
      title           : Chapter 12
    Chapter #0:12: start 4733.810933, end 4914.574844
    Metadata:
      title           : Chapter 13
    Chapter #0:13: start 4914.574844, end 5246.197778
    Metadata:
      title           : Chapter 14
    Chapter #0:14: start 5246.197778, end 5591.375911
    Metadata:
      title           : Chapter 15
    Chapter #0:15: start 5591.375911, end 6075.156000
    Metadata:
      title           : Chapter 16
    Stream #0:0: Video: hevc (Main 10), yuv420p10le(tv, bt2020nc/bt2020/smpte2084), 3840x2160 [SAR 1:1 DAR 16:9], 23.98 fps, 23.98 tbr, 1k tbn, 23.98 tbc (default)
    Metadata:
      title           : Wreck-It_Ralph_Full_Bluray
      BPS-eng         : 49221090
      DURATION-eng    : 01:41:15.133000000
      NUMBER_OF_FRAMES-eng: 145615
      NUMBER_OF_BYTES-eng: 37378084084
      _STATISTICS_WRITING_APP-eng: mkvmerge v28.2.0 ('The Awakening') 64-bit
      _STATISTICS_WRITING_DATE_UTC-eng: 2018-11-07 20:19:17
      _STATISTICS_TAGS-eng: BPS DURATION NUMBER_OF_FRAMES NUMBER_OF_BYTES
      ENCODER         : Lavc58.39.100 libx265
      DURATION        : 01:41:15.174000000
    Stream #0:1(eng): Audio: aac (LC), 48000 Hz, stereo, fltp (default)
    Metadata:
      title           : Wreck-It_Ralph_Full_Bluray
      BPS-eng         : 4596983
      DURATION-eng    : 01:41:15.101000000
      NUMBER_OF_FRAMES-eng: 7289163
      NUMBER_OF_BYTES-eng: 3490892502
      _STATISTICS_WRITING_APP-eng: mkvmerge v28.2.0 ('The Awakening') 64-bit
      _STATISTICS_WRITING_DATE_UTC-eng: 2018-11-07 20:19:17
      _STATISTICS_TAGS-eng: BPS DURATION NUMBER_OF_FRAMES NUMBER_OF_BYTES
      ENCODER         : Lavc58.39.100 aac
      DURATION        : 01:41:15.154000000
    Stream #0:2(eng): Audio: aac (LC), 48000 Hz, stereo, fltp
    Metadata:
      title           : Wreck-It_Ralph_Full_Bluray
      BPS-eng         : 639997
      DURATION-eng    : 01:41:15.125000000
      NUMBER_OF_FRAMES-eng: 189847
      NUMBER_OF_BYTES-eng: 486008320
      _STATISTICS_WRITING_APP-eng: mkvmerge v28.2.0 ('The Awakening') 64-bit
      _STATISTICS_WRITING_DATE_UTC-eng: 2018-11-07 20:19:17
      _STATISTICS_TAGS-eng: BPS DURATION NUMBER_OF_FRAMES NUMBER_OF_BYTES
      ENCODER         : Lavc58.39.100 aac
      DURATION        : 01:41:15.177000000
    Stream #0:3(eng): Audio: aac (LC), 48000 Hz, stereo, fltp
    Metadata:
      title           : Wreck-It_Ralph_Full_Bluray
      BPS-eng         : 639997
      DURATION-eng    : 01:41:15.124000000
      NUMBER_OF_FRAMES-eng: 189847
      NUMBER_OF_BYTES-eng: 486008320
      _STATISTICS_WRITING_APP-eng: mkvmerge v28.2.0 ('The Awakening') 64-bit
      _STATISTICS_WRITING_DATE_UTC-eng: 2018-11-07 20:19:17
      _STATISTICS_TAGS-eng: BPS DURATION NUMBER_OF_FRAMES NUMBER_OF_BYTES
      ENCODER         : Lavc58.39.100 aac
      DURATION        : 01:41:15.145000000
    Stream #0:4(eng): Audio: aac (LC), 48000 Hz, stereo, fltp
    Metadata:
      title           : Wreck-It_Ralph_Full_Bluray
      BPS-eng         : 319998
      DURATION-eng    : 01:41:15.124000000
      NUMBER_OF_FRAMES-eng: 189847
      NUMBER_OF_BYTES-eng: 243004160
      _STATISTICS_WRITING_APP-eng: mkvmerge v28.2.0 ('The Awakening') 64-bit
      _STATISTICS_WRITING_DATE_UTC-eng: 2018-11-07 20:19:17
      _STATISTICS_TAGS-eng: BPS DURATION NUMBER_OF_FRAMES NUMBER_OF_BYTES
      ENCODER         : Lavc58.39.100 aac
      DURATION        : 01:41:15.145000000
    Stream #0:5(fre): Audio: aac (LC), 48000 Hz, stereo, fltp
    Metadata:
      title           : Wreck-It_Ralph_Full_Bluray
      BPS-eng         : 639997
      DURATION-eng    : 01:41:15.124000000
      NUMBER_OF_FRAMES-eng: 189847
      NUMBER_OF_BYTES-eng: 486008320
      _STATISTICS_WRITING_APP-eng: mkvmerge v28.2.0 ('The Awakening') 64-bit
      _STATISTICS_WRITING_DATE_UTC-eng: 2018-11-07 20:19:17
      _STATISTICS_TAGS-eng: BPS DURATION NUMBER_OF_FRAMES NUMBER_OF_BYTES
      ENCODER         : Lavc58.39.100 aac
      DURATION        : 01:41:15.145000000
    Stream #0:6(spa): Audio: aac (LC), 48000 Hz, stereo, fltp
    Metadata:
      title           : Wreck-It_Ralph_Full_Bluray
      BPS-eng         : 639997
      DURATION-eng    : 01:41:15.124000000
      NUMBER_OF_FRAMES-eng: 189847
      NUMBER_OF_BYTES-eng: 486008320
      _STATISTICS_WRITING_APP-eng: mkvmerge v28.2.0 ('The Awakening') 64-bit
      _STATISTICS_WRITING_DATE_UTC-eng: 2018-11-07 20:19:17
      _STATISTICS_TAGS-eng: BPS DURATION NUMBER_OF_FRAMES NUMBER_OF_BYTES
      ENCODER         : Lavc58.39.100 aac
      DURATION        : 01:41:15.145000000
    Stream #0:7(jpn): Audio: aac (LC), 48000 Hz, stereo, fltp
    Metadata:
      title           : Wreck-It_Ralph_Full_Bluray
      BPS-eng         : 1023996
      DURATION-eng    : 01:41:15.124000000
      NUMBER_OF_FRAMES-eng: 189847
      NUMBER_OF_BYTES-eng: 777613312
      _STATISTICS_WRITING_APP-eng: mkvmerge v28.2.0 ('The Awakening') 64-bit
      _STATISTICS_WRITING_DATE_UTC-eng: 2018-11-07 20:19:17
      _STATISTICS_TAGS-eng: BPS DURATION NUMBER_OF_FRAMES NUMBER_OF_BYTES
      ENCODER         : Lavc58.39.100 aac
      DURATION        : 01:41:15.145000000
    Stream #0:8(kor): Audio: aac (LC), 48000 Hz, stereo, fltp
    Metadata:
      title           : Wreck-It_Ralph_Full_Bluray
      BPS-eng         : 639997
      DURATION-eng    : 01:41:15.124000000
      NUMBER_OF_FRAMES-eng: 189847
      NUMBER_OF_BYTES-eng: 486008320
      _STATISTICS_WRITING_APP-eng: mkvmerge v28.2.0 ('The Awakening') 64-bit
      _STATISTICS_WRITING_DATE_UTC-eng: 2018-11-07 20:19:17
      _STATISTICS_TAGS-eng: BPS DURATION NUMBER_OF_FRAMES NUMBER_OF_BYTES
      ENCODER         : Lavc58.39.100 aac
      DURATION        : 01:41:15.145000000
    Stream #0:9(chi): Audio: aac (LC), 48000 Hz, stereo, fltp
    Metadata:
      title           : Wreck-It_Ralph_Full_Bluray
      BPS-eng         : 639997
      DURATION-eng    : 01:41:15.124000000
      NUMBER_OF_FRAMES-eng: 189847
      NUMBER_OF_BYTES-eng: 486008320
      _STATISTICS_WRITING_APP-eng: mkvmerge v28.2.0 ('The Awakening') 64-bit
      _STATISTICS_WRITING_DATE_UTC-eng: 2018-11-07 20:19:17
      _STATISTICS_TAGS-eng: BPS DURATION NUMBER_OF_FRAMES NUMBER_OF_BYTES
      ENCODER         : Lavc58.39.100 aac
      DURATION        : 01:41:15.145000000
    Stream #0:10(eng): Subtitle: hdmv_pgs_subtitle (default)
    Metadata:
      title           : English-PGS
      BPS-eng         : 47478
      DURATION-eng    : 01:40:15.573000000
      NUMBER_OF_FRAMES-eng: 3748
      NUMBER_OF_BYTES-eng: 35701221
      _STATISTICS_WRITING_APP-eng: mkvmerge v28.2.0 ('The Awakening') 64-bit
      _STATISTICS_WRITING_DATE_UTC-eng: 2018-11-07 20:19:17
      _STATISTICS_TAGS-eng: BPS DURATION NUMBER_OF_FRAMES NUMBER_OF_BYTES
      DURATION        : 01:40:59.012000000
    Stream #0:11(eng): Subtitle: hdmv_pgs_subtitle
    Metadata:
      title           : English-SDH-PGS
      BPS-eng         : 41774
      DURATION-eng    : 01:32:14.927000000
      NUMBER_OF_FRAMES-eng: 2989
      NUMBER_OF_BYTES-eng: 28902299
      _STATISTICS_WRITING_APP-eng: mkvmerge v28.2.0 ('The Awakening') 64-bit
      _STATISTICS_WRITING_DATE_UTC-eng: 2018-11-07 20:19:17
      _STATISTICS_TAGS-eng: BPS DURATION NUMBER_OF_FRAMES NUMBER_OF_BYTES
      DURATION        : 01:33:03.204000000
    Stream #0:12(fre): Subtitle: hdmv_pgs_subtitle
    Metadata:
      title           : French-PGS
      BPS-eng         : 42896
      DURATION-eng    : 01:34:14.296000000
      NUMBER_OF_FRAMES-eng: 3107
      NUMBER_OF_BYTES-eng: 30318490
      _STATISTICS_WRITING_APP-eng: mkvmerge v28.2.0 ('The Awakening') 64-bit
      _STATISTICS_WRITING_DATE_UTC-eng: 2018-11-07 20:19:17
      _STATISTICS_TAGS-eng: BPS DURATION NUMBER_OF_FRAMES NUMBER_OF_BYTES
      DURATION        : 01:34:57.735000000
    Stream #0:13(spa): Subtitle: hdmv_pgs_subtitle
    Metadata:
      title           : Spanish-PGS
      BPS-eng         : 39213
      DURATION-eng    : 01:34:14.337000000
      NUMBER_OF_FRAMES-eng: 2657
      NUMBER_OF_BYTES-eng: 27715685
      _STATISTICS_WRITING_APP-eng: mkvmerge v28.2.0 ('The Awakening') 64-bit
      _STATISTICS_WRITING_DATE_UTC-eng: 2018-11-07 20:19:17
      _STATISTICS_TAGS-eng: BPS DURATION NUMBER_OF_FRAMES NUMBER_OF_BYTES
      DURATION        : 01:34:57.818000000
    Stream #0:14(jpn): Subtitle: hdmv_pgs_subtitle
    Metadata:
      title           : Japanese-PGS
      BPS-eng         : 33302
      DURATION-eng    : 01:32:14.968000000
      NUMBER_OF_FRAMES-eng: 2757
      NUMBER_OF_BYTES-eng: 23041327
      _STATISTICS_WRITING_APP-eng: mkvmerge v28.2.0 ('The Awakening') 64-bit
      _STATISTICS_WRITING_DATE_UTC-eng: 2018-11-07 20:19:17
      _STATISTICS_TAGS-eng: BPS DURATION NUMBER_OF_FRAMES NUMBER_OF_BYTES
      DURATION        : 01:33:03.245000000
    Stream #0:15(kor): Subtitle: hdmv_pgs_subtitle
    Metadata:
      title           : Korean-PGS
      BPS-eng         : 22022
      DURATION-eng    : 01:34:14.337000000
      NUMBER_OF_FRAMES-eng: 2716
      NUMBER_OF_BYTES-eng: 15565337
      _STATISTICS_WRITING_APP-eng: mkvmerge v28.2.0 ('The Awakening') 64-bit
      _STATISTICS_WRITING_DATE_UTC-eng: 2018-11-07 20:19:17
      _STATISTICS_TAGS-eng: BPS DURATION NUMBER_OF_FRAMES NUMBER_OF_BYTES
      DURATION        : 01:34:57.818000000
    Stream #0:16(chi): Subtitle: hdmv_pgs_subtitle
    Metadata:
      title           : Chinese-PGS
      BPS-eng         : 28745
      DURATION-eng    : 01:32:19.764000000
      NUMBER_OF_FRAMES-eng: 3212
      NUMBER_OF_BYTES-eng: 19905506
      _STATISTICS_WRITING_APP-eng: mkvmerge v28.2.0 ('The Awakening') 64-bit
      _STATISTICS_WRITING_DATE_UTC-eng: 2018-11-07 20:19:17
      _STATISTICS_TAGS-eng: BPS DURATION NUMBER_OF_FRAMES NUMBER_OF_BYTES
      DURATION        : 01:33:03.245000000
    Stream #0:17(chi): Subtitle: hdmv_pgs_subtitle
    Metadata:
      title           : Chinese-PGS
      BPS-eng         : 33112
      DURATION-eng    : 01:32:30.442000000
      NUMBER_OF_FRAMES-eng: 3799
      NUMBER_OF_BYTES-eng: 22973352
      _STATISTICS_WRITING_APP-eng: mkvmerge v28.2.0 ('The Awakening') 64-bit
      _STATISTICS_WRITING_DATE_UTC-eng: 2018-11-07 20:19:17
      _STATISTICS_TAGS-eng: BPS DURATION NUMBER_OF_FRAMES NUMBER_OF_BYTES
      DURATION        : 01:33:13.923000000
    Stream #0:18(fre): Subtitle: hdmv_pgs_subtitle
    Metadata:
      title           : French-PGS
      BPS-eng         : 1021
      DURATION-eng    : 01:34:14.296000000
      NUMBER_OF_FRAMES-eng: 120
      NUMBER_OF_BYTES-eng: 722098
      _STATISTICS_WRITING_APP-eng: mkvmerge v28.2.0 ('The Awakening') 64-bit
      _STATISTICS_WRITING_DATE_UTC-eng: 2018-11-07 20:19:17
      _STATISTICS_TAGS-eng: BPS DURATION NUMBER_OF_FRAMES NUMBER_OF_BYTES
      DURATION        : 01:34:57.735000000
    Stream #0:19(spa): Subtitle: hdmv_pgs_subtitle
    Metadata:
      title           : Spanish-PGS
      BPS-eng         : 765
      DURATION-eng    : 01:34:14.337000000
      NUMBER_OF_FRAMES-eng: 100
      NUMBER_OF_BYTES-eng: 540774
      _STATISTICS_WRITING_APP-eng: mkvmerge v28.2.0 ('The Awakening') 64-bit
      _STATISTICS_WRITING_DATE_UTC-eng: 2018-11-07 20:19:17
      _STATISTICS_TAGS-eng: BPS DURATION NUMBER_OF_FRAMES NUMBER_OF_BYTES
      DURATION        : 01:34:57.818000000
    Stream #0:20(jpn): Subtitle: hdmv_pgs_subtitle, 1920x1080
    Metadata:
      title           : Japanese-PGS
      BPS-eng         : 137
      DURATION-eng    : 01:40:06.773000000
      NUMBER_OF_FRAMES-eng: 54
      NUMBER_OF_BYTES-eng: 103516
      _STATISTICS_WRITING_APP-eng: mkvmerge v28.2.0 ('The Awakening') 64-bit
      _STATISTICS_WRITING_DATE_UTC-eng: 2018-11-07 20:19:17
      _STATISTICS_TAGS-eng: BPS DURATION NUMBER_OF_FRAMES NUMBER_OF_BYTES
      DURATION        : 01:40:08.629000000
    Stream #0:21(kor): Subtitle: hdmv_pgs_subtitle
    Metadata:
      title           : Korean-PGS
      BPS-eng         : 728
      DURATION-eng    : 01:34:14.337000000
      NUMBER_OF_FRAMES-eng: 150
      NUMBER_OF_BYTES-eng: 514778
      _STATISTICS_WRITING_APP-eng: mkvmerge v28.2.0 ('The Awakening') 64-bit
      _STATISTICS_WRITING_DATE_UTC-eng: 2018-11-07 20:19:17
      _STATISTICS_TAGS-eng: BPS DURATION NUMBER_OF_FRAMES NUMBER_OF_BYTES
      DURATION        : 01:34:57.818000000
    Stream #0:22(chi): Subtitle: hdmv_pgs_subtitle
    Metadata:
      title           : Chinese-PGS
      BPS-eng         : 1080
      DURATION-eng    : 01:32:28.481000000
      NUMBER_OF_FRAMES-eng: 145
      NUMBER_OF_BYTES-eng: 749664
      _STATISTICS_WRITING_APP-eng: mkvmerge v28.2.0 ('The Awakening') 64-bit
      _STATISTICS_WRITING_DATE_UTC-eng: 2018-11-07 20:19:17
      _STATISTICS_TAGS-eng: BPS DURATION NUMBER_OF_FRAMES NUMBER_OF_BYTES
      DURATION        : 01:33:11.962000000
    Stream #0:23: Video: hevc (Rext), yuv444p(tv, bt2020nc/bt2020/smpte2084, progressive), 3840x2160, 1k tbr, 1k tbn, 90k tbc
    Metadata:
      FILENAME        : cover_land.jpg
      MIMETYPE        : image/jpeg
      ENCODER         : Lavc58.39.100 libx265
      DURATION        : 00:00:00.021000000
    Stream #0:24: Video: hevc (Rext), yuv444p(tv, bt2020nc/bt2020/smpte2084, progressive), 3840x2160, 1k tbr, 1k tbn, 90k tbc
    Metadata:
      FILENAME        : small_cover.jpg
      MIMETYPE        : image/jpeg
      ENCODER         : Lavc58.39.100 libx265
      DURATION        : 00:00:00.021000000
    Stream #0:25: Video: hevc (Rext), yuv444p(tv, bt2020nc/bt2020/smpte2084, progressive), 3840x2160, 1k tbr, 1k tbn, 90k tbc
    Metadata:
      FILENAME        : small_cover_land.jpg
      MIMETYPE        : image/jpeg
      ENCODER         : Lavc58.39.100 libx265
      DURATION        : 00:00:00.021000000
    Stream #0:26: Video: hevc (Rext), yuv444p(tv, bt2020nc/bt2020/smpte2084, progressive), 3840x2160, 1k tbr, 1k tbn, 90k tbc
    Metadata:
      FILENAME        : cover.jpg
      MIMETYPE        : image/jpeg
      ENCODER         : Lavc58.39.100 libx265
      DURATION        : 00:00:00.021000000
    Stream #0:27: Video: hevc (Rext), yuv444p(tv, bt2020nc/bt2020/smpte2084, progressive), 3840x2160, 1k tbr, 1k tbn, 90k tbc
    Metadata:
      FILENAME        : cover_land.jpg
      MIMETYPE        : image/jpeg
      ENCODER         : Lavc58.39.100 libx265
      DURATION        : 00:00:00.021000000
    Stream #0:28: Video: hevc (Rext), yuv444p(tv, bt2020nc/bt2020/smpte2084, progressive), 3840x2160, 1k tbr, 1k tbn, 90k tbc
    Metadata:
      FILENAME        : small_cover.jpg
      MIMETYPE        : image/jpeg
      ENCODER         : Lavc58.39.100 libx265
      DURATION        : 00:00:00.021000000
    Stream #0:29: Video: hevc (Rext), yuv444p(tv, bt2020nc/bt2020/smpte2084, progressive), 3840x2160, 1k tbr, 1k tbn, 90k tbc
    Metadata:
      FILENAME        : small_cover_land.jpg
      MIMETYPE        : image/jpeg
      ENCODER         : Lavc58.39.100 libx265
      DURATION        : 00:00:00.021000000
    Stream #0:30: Video: hevc (Rext), yuv444p(tv, bt2020nc/bt2020/smpte2084, progressive), 3840x2160, 1k tbr, 1k tbn, 90k tbc
    Metadata:
      FILENAME        : cover.jpg
      MIMETYPE        : image/jpeg
      ENCODER         : Lavc58.39.100 libx265
      DURATION        : 00:00:00.021000000
At least one output file must be specified

















-----Original Message-----
From: ffmpeg-user <[hidden email]> On Behalf Of Carl Eugen Hoyos
Sent: Thursday, November 22, 2018 7:49 AM
To: FFmpeg user questions <[hidden email]>
Subject: Re: [FFmpeg-user] Compressing animation - result has washed out colors

2018-11-22 12:50 GMT+01:00, Ron Barnes <[hidden email]>:

> The issue I'm having (and I have gotten help already, thanks to all)
> is the colors are faded and washed out.  I have been trolling the
> documentation site and trying differing command options but nothing seems to work.
>
> Here is my line command...
>
>
> ffmpeg -i "Wreck_It_Ralph_Full_Bluray.mkv" -c:v libx265
> -analyzeduration 10M -probesize 10M -preset medium -map 0 -c:s copy
> -c:a:0 libmp3lame -b:a:0 128k -reserve_index_space 1000k -crf 20 -s
> 3840x2160 -color_primaries bt2020 -color_trc smpte2084 -colorspace
> bt2020nc -color_range tv -ac 2 -c:a aac -b:a 128k -metadata
> title="Wreck-it Ralph" Wreck-It_Ralph.mkv

Please provide "ffmpeg -i" console output for the output file.

Carl Eugen
_______________________________________________
ffmpeg-user mailing list
[hidden email]
http://ffmpeg.org/mailman/listinfo/ffmpeg-user

To unsubscribe, visit link above, or email [hidden email] with subject "unsubscribe".

_______________________________________________
ffmpeg-user mailing list
[hidden email]
http://ffmpeg.org/mailman/listinfo/ffmpeg-user

To unsubscribe, visit link above, or email
[hidden email] with subject "unsubscribe".
Reply | Threaded
Open this post in threaded view
|

Re: Compressing animation - result has washed out colors

Carl Eugen Hoyos-2
In reply to this post by Ron Barnes
2018-11-22 14:28 GMT+01:00, Ron Barnes <[hidden email]>:

>     Stream #0:0: Video: hevc (Main 10), yuv420p10le(tv,
> bt2020nc/bt2020/smpte2084), 3840x2160 [SAR 1:1 DAR 16:9], 23.98 fps, 23.98
> tbr, 1k tbn, 23.98 tbc (default)

Looks similar.

Which applications are you using for playback?
For both files the same?

Carl Eugen
_______________________________________________
ffmpeg-user mailing list
[hidden email]
http://ffmpeg.org/mailman/listinfo/ffmpeg-user

To unsubscribe, visit link above, or email
[hidden email] with subject "unsubscribe".
Reply | Threaded
Open this post in threaded view
|

Re: Compressing animation - result has washed out colors

Ron Barnes
Hi,

I am using Plex on my LG TV

-----Original Message-----
From: ffmpeg-user <[hidden email]> On Behalf Of Carl Eugen Hoyos
Sent: Thursday, November 22, 2018 9:11 AM
To: FFmpeg user questions <[hidden email]>
Subject: Re: [FFmpeg-user] Compressing animation - result has washed out colors

2018-11-22 14:28 GMT+01:00, Ron Barnes <[hidden email]>:

>     Stream #0:0: Video: hevc (Main 10), yuv420p10le(tv,
> bt2020nc/bt2020/smpte2084), 3840x2160 [SAR 1:1 DAR 16:9], 23.98 fps,
> 23.98 tbr, 1k tbn, 23.98 tbc (default)

Looks similar.

Which applications are you using for playback?
For both files the same?

Carl Eugen
_______________________________________________
ffmpeg-user mailing list
[hidden email]
http://ffmpeg.org/mailman/listinfo/ffmpeg-user

To unsubscribe, visit link above, or email [hidden email] with subject "unsubscribe".

_______________________________________________
ffmpeg-user mailing list
[hidden email]
http://ffmpeg.org/mailman/listinfo/ffmpeg-user

To unsubscribe, visit link above, or email
[hidden email] with subject "unsubscribe".
Reply | Threaded
Open this post in threaded view
|

Re: Compressing animation - result has washed out colors

Carl Eugen Hoyos-2
2018-11-22 16:04 GMT+01:00, Ron Barnes <[hidden email]>:

> I am using Plex on my LG TV

But the input and output files look different on playback, correct?

Please do not top-post here, Carl Eugen
_______________________________________________
ffmpeg-user mailing list
[hidden email]
http://ffmpeg.org/mailman/listinfo/ffmpeg-user

To unsubscribe, visit link above, or email
[hidden email] with subject "unsubscribe".
Reply | Threaded
Open this post in threaded view
|

Re: Compressing animation - result has washed out colors

Ron Barnes
Hi yes they do,

Here are frame grabs from both.  Apparently they look similar and after looking at them myself.  I would say that too.  But on the TV they is a marked difference is quality.

Maybe I'm over thinking this too much??


http://njdevils.net/upload/InputFrame.png

http://njdevils.net/upload/OutputFrame.png


Thanks,

-Ron

-----Original Message-----
From: ffmpeg-user <[hidden email]> On Behalf Of Carl Eugen Hoyos
Sent: Thursday, November 22, 2018 10:12 AM
To: FFmpeg user questions <[hidden email]>
Subject: Re: [FFmpeg-user] Compressing animation - result has washed out colors

2018-11-22 16:04 GMT+01:00, Ron Barnes <[hidden email]>:

> I am using Plex on my LG TV

But the input and output files look different on playback, correct?

Please do not top-post here, Carl Eugen
_______________________________________________
ffmpeg-user mailing list
[hidden email]
http://ffmpeg.org/mailman/listinfo/ffmpeg-user

To unsubscribe, visit link above, or email [hidden email] with subject "unsubscribe".

_______________________________________________
ffmpeg-user mailing list
[hidden email]
http://ffmpeg.org/mailman/listinfo/ffmpeg-user

To unsubscribe, visit link above, or email
[hidden email] with subject "unsubscribe".
Reply | Threaded
Open this post in threaded view
|

Re: Compressing animation - result has washed out colors

Kieran O Leary
On Thu, 22 Nov 2018, 16:52 Ron Barnes <[hidden email] wrote:

> Hi yes they do,
>
> Here are frame grabs from both.  Apparently they look similar and after
> looking at them myself.  I would say that too.  But on the TV they is a
> marked difference is quality.
>
> Maybe I'm over thinking this too much??
>
>
> http://njdevils.net/upload/InputFrame.png
>
> http://njdevils.net/upload/OutputFrame.png


My connection is bad at the moment,but if these are the same ones you sent
off-list,then brightness and colour levels looks similar,if not identical.
Can you send a photo of your TV screen showing the difference? I know this
probably won't work too well. Otherwise can you describe exactly what the
difference is? Is it difference in brightness,contrast, colour
hue/saturation, or does it just look lower quality in a general sense?
_______________________________________________
ffmpeg-user mailing list
[hidden email]
http://ffmpeg.org/mailman/listinfo/ffmpeg-user

To unsubscribe, visit link above, or email
[hidden email] with subject "unsubscribe".
Reply | Threaded
Open this post in threaded view
|

Re: Compressing animation - result has washed out colors

Ron Barnes
Hi Kieran,

I think I know what the issue is and I have no idea how to fix it.  When I play the movie on my 24 inch Desktop monitor they both look the same.  When I play it on the 65 inch TV the original looks great but the compressed looks washed out.

Here is what I (Think) figured out.  On my daughters 32 inch TV they both look the same also.  Since the 24 and 32 inch screens seem to show no difference, what that tells me is that maybe when I compressed the movie, it is no longer 4K.  I think.

Does any of this help?

-Ron

-----Original Message-----
From: ffmpeg-user <[hidden email]> On Behalf Of Kieran O Leary
Sent: Thursday, November 22, 2018 1:53 PM
To: FFmpeg user questions <[hidden email]>
Subject: Re: [FFmpeg-user] Compressing animation - result has washed out colors

On Thu, 22 Nov 2018, 16:52 Ron Barnes <[hidden email] wrote:

> Hi yes they do,
>
> Here are frame grabs from both.  Apparently they look similar and
> after looking at them myself.  I would say that too.  But on the TV
> they is a marked difference is quality.
>
> Maybe I'm over thinking this too much??
>
>
> http://njdevils.net/upload/InputFrame.png
>
> http://njdevils.net/upload/OutputFrame.png


My connection is bad at the moment,but if these are the same ones you sent off-list,then brightness and colour levels looks similar,if not identical.
Can you send a photo of your TV screen showing the difference? I know this probably won't work too well. Otherwise can you describe exactly what the difference is? Is it difference in brightness,contrast, colour hue/saturation, or does it just look lower quality in a general sense?
_______________________________________________
ffmpeg-user mailing list
[hidden email]
http://ffmpeg.org/mailman/listinfo/ffmpeg-user

To unsubscribe, visit link above, or email [hidden email] with subject "unsubscribe".

_______________________________________________
ffmpeg-user mailing list
[hidden email]
http://ffmpeg.org/mailman/listinfo/ffmpeg-user

To unsubscribe, visit link above, or email
[hidden email] with subject "unsubscribe".
Reply | Threaded
Open this post in threaded view
|

Re: Compressing animation - result has washed out colors

Kieran O Leary
On Thu, 22 Nov 2018, 20:57 Ron Barnes <[hidden email] wrote:

> Hi Kieran,
>
> I think I know what the issue is and I have no idea how to fix it.  When I
> play the movie on my 24 inch Desktop monitor they both look the same.  When
> I play it on the 65 inch TV the original looks great but the compressed
> looks washed out.
>

That seems weird.


> Here is what I (Think) figured out.  On my daughters 32 inch TV they both
> look the same also.  Since the 24 and 32 inch screens seem to show no
> difference, what that tells me is that maybe when I compressed the movie,
> it is no longer 4K.  I think.
>

Your file is still 4K from what I can see. Seeing as the ffmpeg terminal
outputs and the screenshots look identical in the source and new files,
there seems to be something about how your (4k?) 65 inch TV is interpreting
the file.
As a long shot, I'd be curious to know if there's some flag in the
reencoded h265 bitstream that is in your source file but not in the
output,and this is what is triggering the issue.

Can you try the following command and check it on your big TV? The encode
should be very quick as the streams are being copied into a new container.


ffmpeg -i "Wreck_It_Ralph_Full_Bluray.mkv" -c copy -map 0 -color_primaries
bt2020 -color_trc smpte2084 -colorspace bt2020nc -color_range tv
Wreck-It_Ralph_streamcopy.mkv
_______________________________________________
ffmpeg-user mailing list
[hidden email]
http://ffmpeg.org/mailman/listinfo/ffmpeg-user

To unsubscribe, visit link above, or email
[hidden email] with subject "unsubscribe".
Reply | Threaded
Open this post in threaded view
|

Re: Compressing animation - result has washed out colors

Ron Barnes
Ok - I kicked off the job.  It looks to be running faster but will still take a while as it's 80GB.

However it did pop-out this message in yellow....

" Timestamps are unset in a packet for stream 1. This is deprecated and will stop working in the future. Fix your code to set the timestamps properly"

Any idea what that means?

Figure I'd ask while waiting for the copy to complete.

-----Original Message-----
From: ffmpeg-user <[hidden email]> On Behalf Of Kieran O Leary
Sent: Thursday, November 22, 2018 6:56 PM
To: FFmpeg user questions <[hidden email]>
Subject: Re: [FFmpeg-user] Compressing animation - result has washed out colors

On Thu, 22 Nov 2018, 20:57 Ron Barnes <[hidden email] wrote:

> Hi Kieran,
>
> I think I know what the issue is and I have no idea how to fix it.  
> When I play the movie on my 24 inch Desktop monitor they both look the
> same.  When I play it on the 65 inch TV the original looks great but
> the compressed looks washed out.
>

That seems weird.


> Here is what I (Think) figured out.  On my daughters 32 inch TV they
> both look the same also.  Since the 24 and 32 inch screens seem to
> show no difference, what that tells me is that maybe when I compressed
> the movie, it is no longer 4K.  I think.
>

Your file is still 4K from what I can see. Seeing as the ffmpeg terminal outputs and the screenshots look identical in the source and new files, there seems to be something about how your (4k?) 65 inch TV is interpreting the file.
As a long shot, I'd be curious to know if there's some flag in the reencoded h265 bitstream that is in your source file but not in the output,and this is what is triggering the issue.

Can you try the following command and check it on your big TV? The encode should be very quick as the streams are being copied into a new container.


ffmpeg -i "Wreck_It_Ralph_Full_Bluray.mkv" -c copy -map 0 -color_primaries
bt2020 -color_trc smpte2084 -colorspace bt2020nc -color_range tv Wreck-It_Ralph_streamcopy.mkv _______________________________________________
ffmpeg-user mailing list
[hidden email]
http://ffmpeg.org/mailman/listinfo/ffmpeg-user

To unsubscribe, visit link above, or email [hidden email] with subject "unsubscribe".

_______________________________________________
ffmpeg-user mailing list
[hidden email]
http://ffmpeg.org/mailman/listinfo/ffmpeg-user

To unsubscribe, visit link above, or email
[hidden email] with subject "unsubscribe".
Reply | Threaded
Open this post in threaded view
|

Re: Compressing animation - result has washed out colors

Ron Barnes
In reply to this post by Kieran O Leary
Hi Kieran,

Ok I did as you asked and I observed three things...

1)  The output from your command below plays flawlessly across the network and looks exactly as the original does on every TV in the house.  When I say it plays flawlessly, I mean there is no buffering, no pixelization, no stutter nothing.  Just crisp clear picture.  Awesome!

2) The original still looks as good as it but now I will never play it again due to the buffering, pixelization and stutter.

3) This difference in file size is less than 1%.  Yours being greater.

Is that what you were looking for?  Should I provide any other information?

-Ron

-----Original Message-----
From: ffmpeg-user <[hidden email]> On Behalf Of Kieran O Leary
Sent: Thursday, November 22, 2018 6:56 PM
To: FFmpeg user questions <[hidden email]>
Subject: Re: [FFmpeg-user] Compressing animation - result has washed out colors

On Thu, 22 Nov 2018, 20:57 Ron Barnes <[hidden email] wrote:

> Hi Kieran,
>
> I think I know what the issue is and I have no idea how to fix it.  
> When I play the movie on my 24 inch Desktop monitor they both look the
> same.  When I play it on the 65 inch TV the original looks great but
> the compressed looks washed out.
>

That seems weird.


> Here is what I (Think) figured out.  On my daughters 32 inch TV they
> both look the same also.  Since the 24 and 32 inch screens seem to
> show no difference, what that tells me is that maybe when I compressed
> the movie, it is no longer 4K.  I think.
>

Your file is still 4K from what I can see. Seeing as the ffmpeg terminal outputs and the screenshots look identical in the source and new files, there seems to be something about how your (4k?) 65 inch TV is interpreting the file.
As a long shot, I'd be curious to know if there's some flag in the reencoded h265 bitstream that is in your source file but not in the output,and this is what is triggering the issue.

Can you try the following command and check it on your big TV? The encode should be very quick as the streams are being copied into a new container.


ffmpeg -i "Wreck_It_Ralph_Full_Bluray.mkv" -c copy -map 0 -color_primaries
bt2020 -color_trc smpte2084 -colorspace bt2020nc -color_range tv Wreck-It_Ralph_streamcopy.mkv _______________________________________________
ffmpeg-user mailing list
[hidden email]
http://ffmpeg.org/mailman/listinfo/ffmpeg-user

To unsubscribe, visit link above, or email [hidden email] with subject "unsubscribe".

_______________________________________________
ffmpeg-user mailing list
[hidden email]
http://ffmpeg.org/mailman/listinfo/ffmpeg-user

To unsubscribe, visit link above, or email
[hidden email] with subject "unsubscribe".
Reply | Threaded
Open this post in threaded view
|

Re: Compressing animation - result has washed out colors

Kieran O Leary
On Fri, 23 Nov 2018, 01:51 Ron Barnes <[hidden email] wrote:

> Hi Kieran,
>
> Ok I did as you asked and I observed three things...
>
> 1)  The output from your command below plays flawlessly across the network
> and looks exactly as the original does on every TV in the house.  When I
> say it plays flawlessly, I mean there is no buffering, no pixelization, no
> stutter nothing.  Just crisp clear picture.  Awesome!
>

Cool. So I think this might mean that your TV is seeing colour
transformation metadata in the actual x265 stream that is different to what
you have stipulated for the container. This being the SMPTE 2020 and SMPTE
2084 stuff. It's most likely correct in your source video but not in the
one created by ffmpeg/libx265. This could be as much of an issue with x265
as with ffmpeg.

It seems that this person has a similar issue to you, and there are some
examples of extra x265-param arguments in there.
https://forum.doom9.org/showthread.php?t=175227


Can you post the mediainfo output
for your source and output video? I don't know if there is a way to show
these parameters with ffprobe. My hope is to be able to see the x265
parameters for the transfer function that you could then specify on the
command line.

Best,

Kieran.
_______________________________________________
ffmpeg-user mailing list
[hidden email]
http://ffmpeg.org/mailman/listinfo/ffmpeg-user

To unsubscribe, visit link above, or email
[hidden email] with subject "unsubscribe".