ASF to MP3 crash

Previous Topic Next Topic
 
classic Classic list List threaded Threaded
1 message Options
Reply | Threaded
Open this post in threaded view
|

ASF to MP3 crash

Rudi Starcevic-4
Hi,

I have some audio files I've recored using SDP Multimedia
from an online radio station.

The file is .asf and I convert into mp3 with ffmpeg.

Sometimes the conversion fails.

I've just saved this file

37M     funkyhouse_live_2.asf, which is about 2 hours audio.

but the conversion dies at 6.5M    funkyhouse_live_2.mp3

This is my command and the error I'm not sure what
to make of it.

Any tips or suggestion much appreciated.

ffmpeg -i funkyhouse_live_2.asf funkyhouse_live_2.mp3

FFmpeg version SVN-r10932, Copyright (c) 2000-2007 Fabrice Bellard, et al.
  configuration: --prefix=/media/floppy1/usr/local/ffmpeg_2007-11-05
--disable-ffserver --enable-libfaac --enable-libmp3lame
  libavutil version: 49.5.0
  libavcodec version: 51.47.2
  libavformat version: 51.17.1
  built on Nov  6 2007 20:28:47, gcc: 4.1.2 20061115 (prerelease)
(Debian 4.1.1-21)
Input #0, asf, from 'funkyhouse_live_2.asf':
  Duration: 01:57:41.5, start: 1.219000, bitrate: 42 kb/s
    Stream #0.0: Audio: wmav2, 32000 Hz, stereo, 40 kb/s
    Stream #0.1: Invalid Codec type -1
Output #0, mp3, to 'funkyhouse_live_2.mp3':
    Stream #0.0: Audio: libmp3lame, 32000 Hz, stereo, 64 kb/s
Stream mapping:
  Stream #0.0 -> #0.0
Press [q] to stop encoding
Internal buffer inconsistency. flushbits <> ResvSizebit reservoir error:
l3_side->main_data_begin: 2968
Resvoir size:             -96968
resv drain (post)         -5
resv drain (pre)          0
header and sideinfo:      288
data bits:                1798
total bits:               2081 (remainder: 1)
bitsperframe:             2304
This is a fatal error.  It has several possible
causes:90-0XF.FFE853800000B98P+16377ME compiled with buggy version of
gcc using advanced optimizations 9% Your system is overclocked 1% bug in
LAME encoding libraryInternal buffer inconsistency. flushbits <>
ResvSizeInternal buffer inconsistency. flushbits <> ResvSizeInternal
buffer inconsistency. flushbits <> ResvSizeSegmentation fault


--
Thank you.
Regards,
Rudi.

-- informationobject.com

_______________________________________________
ffmpeg-user mailing list
[hidden email]
http://lists.mplayerhq.hu/mailman/listinfo/ffmpeg-user